#TITLE:Air;
#SUBTITLE:SDO China lv19 - [N]hok[Q] Simfile;
#ARTIST:Shiki;
#TITLETRANSLIT:;
#SUBTITLETRANSLIT:;
#ARTISTTRANSLIT:;
#CREDIT:[N]hok[Q];
#BANNER:Air-bn.png;
#BACKGROUND:Air-bg.png;
#LYRICSPATH:;
#CDTITLE:Air-cd.png;
#MUSIC:Air.mp3;
#OFFSET:-0.061;
#SAMPLESTART:5.454;
#SAMPLELENGTH:21.572;
#SELECTABLE:YES;
#DISPLAYBPM:178.000;
#BPMS:0.000=178.064,1.000=178.053,2.000=178.042,3.000=178.031,4.000=178.064,5.000=178.053,6.000=178.042,7.000=178.031,8.000=178.064,9.000=178.053,10.000=178.042,11.000=178.031,12.000=178.020,13.000=178.064,14.000=178.053,15.000=178.042,16.000=178.031,17.000=178.020,18.000=178.064,19.000=178.053,20.000=178.042,21.000=178.031,22.000=178.064,23.000=178.053,24.000=178.042,25.000=178.031,26.000=178.020,27.000=178.064,28.000=178.053,29.000=178.042,30.000=178.031,31.000=178.064,32.000=178.053,33.000=178.042,34.000=178.031,35.000=178.064,36.000=178.053,37.000=178.042,38.000=178.031,39.000=178.064,40.000=178.053,41.000=178.042,42.000=178.031,43.000=178.064,44.000=178.053,45.000=178.042,46.000=178.031,47.000=178.064,48.000=178.053,49.000=178.042,50.000=178.031,51.000=178.064,52.000=178.053,53.000=178.042,54.000=178.031,55.000=178.064,56.000=178.053,57.000=178.042,58.000=178.031,59.000=178.064,60.000=178.053,61.000=178.042,62.000=178.031,63.000=178.064,64.000=177.998,65.000=178.009,66.000=177.998,67.000=178.009,68.000=178.020,69.000=177.998,70.000=178.009,71.000=177.998,72.000=178.009,73.000=177.998,74.000=178.009,75.000=177.998,76.000=178.009,77.000=177.998,78.000=178.009,79.000=177.998,80.000=178.009,81.000=177.998,82.000=178.009,83.000=177.998,84.000=178.009,85.000=177.998,86.000=178.009,87.000=177.998,88.000=178.009,89.000=177.998,90.000=178.009,91.000=177.998,92.000=178.009,93.000=177.998,94.000=178.009,95.000=177.998,96.000=178.009,97.000=177.998,98.000=178.009,99.000=177.998,100.000=178.009,101.000=177.998,102.000=178.009,103.000=177.998,104.000=178.009,105.000=177.998,106.000=178.009,107.000=177.998,108.000=178.009,109.000=177.998,110.000=178.009,111.000=177.998,112.000=178.009,113.000=177.998,114.000=178.009,115.000=177.998,116.000=178.009,117.000=177.998,118.000=178.009,119.000=177.998,120.000=178.009,121.000=177.998,122.000=178.009,123.000=177.998,124.000=178.009,125.000=177.998,126.000=178.009,127.000=177.998,128.000=178.009,129.000=177.998,131.000=178.009,133.000=177.998,135.000=178.009,137.000=177.998,139.000=178.009,141.000=177.998,143.000=178.009,145.000=177.998,147.000=178.009,149.000=177.998,151.000=178.009,153.000=177.998,155.000=178.009,157.000=177.998,159.000=178.009,161.000=177.998,163.000=178.009,165.000=177.998,167.000=178.009,169.000=177.998,171.000=178.009,173.000=177.998,175.000=178.009,177.000=177.998,179.000=178.009,181.000=177.998,183.000=178.009,185.000=177.998,187.000=178.009,189.000=177.998,191.000=178.009,193.000=177.998,195.000=178.009,197.000=177.998,199.000=178.009,201.000=177.998,203.000=178.009,205.000=177.998,207.000=178.009,209.000=177.998,211.000=178.009,213.000=177.998,215.000=178.009,217.000=177.998,219.000=178.009,221.000=177.998,223.000=178.009,225.000=177.998,227.000=178.009,229.000=177.998,231.000=178.009,233.000=177.998,235.000=178.009,237.000=177.998,239.000=178.009,241.000=177.998,243.000=178.009,245.000=177.998,247.000=178.009,249.000=177.998,251.000=178.009,253.000=177.998,255.000=178.009,257.000=177.998,262.000=178.009,263.000=177.998,268.000=178.009,269.000=177.998,274.000=178.009,275.000=177.998,280.000=178.009,281.000=177.998,286.000=178.009,287.000=177.998,292.000=178.009,293.000=177.998,298.000=178.009,299.000=177.998,304.000=178.009,305.000=177.998,310.000=178.009,311.000=177.998,316.000=178.009,317.000=177.998,322.000=178.009,323.000=177.998,328.000=178.009,329.000=177.998,334.000=178.009,335.000=177.998,340.000=178.009,341.000=177.998,346.000=178.009,347.000=177.998,352.000=178.009,353.000=177.998,358.000=178.009,359.000=177.998,364.000=178.009,365.000=177.998,370.000=178.009,371.000=177.998,376.000=178.009,377.000=177.998,381.000=178.009,382.000=177.998,387.000=178.009,388.000=177.998,393.000=178.009,394.000=177.998,399.000=178.009,400.000=177.998,405.000=178.009,407.000=177.998,412.000=178.009,413.000=177.998,418.000=178.009,419.000=177.998,424.000=178.009,425.000=177.998,430.000=178.009,431.000=177.998,436.000=178.009,437.000=177.998,442.000=178.009,443.000=177.998,448.000=178.009,449.000=177.998,453.000=178.009,454.000=177.998,459.000=178.009,460.000=177.998,465.000=178.009,466.000=177.998,471.000=178.009,472.000=177.998,477.000=178.009,478.000=177.998,483.000=178.009,484.000=177.998,489.000=178.009,490.000=177.998,495.000=178.009,496.000=177.998;
#STOPS:;
#BGCHANGES:16.000=xxx0001.jpg=1.000=0=0=1,
16.125=xxx0002.jpg=1.000=0=0=1,
16.250=xxx0003.jpg=1.000=0=0=1,
16.375=xxx0004.jpg=1.000=0=0=1,
16.500=xxx0005.jpg=1.000=0=0=1,
16.625=xxx0006.jpg=1.000=0=0=1,
16.750=xxx0007.jpg=1.000=0=0=1,
16.875=xxx0008.jpg=1.000=0=0=1,
17.000=xxx0009.jpg=1.000=0=0=1,
17.125=xxx0010.jpg=1.000=0=0=1,
17.250=xxx0011.jpg=1.000=0=0=1,
17.375=xxx0012.jpg=1.000=0=0=1,
17.500=xxx0013.jpg=1.000=0=0=1,
17.625=xxx0014.jpg=1.000=0=0=1,
17.750=xxx0015.jpg=1.000=0=0=1,
17.875=xxx0016.jpg=1.000=0=0=1,
18.000=crd0001.jpg=1.000=0=0=1,
18.125=crd0002.jpg=1.000=0=0=1,
18.250=crd0003.jpg=1.000=0=0=1,
18.375=crd0004.jpg=1.000=0=0=1,
18.500=crd0005.jpg=1.000=0=0=1,
18.625=crd0006.jpg=1.000=0=0=1,
18.750=crd0007.jpg=1.000=0=0=1,
18.875=crd0008.jpg=1.000=0=0=1,
19.000=crd0009.jpg=1.000=0=0=1,
19.125=crd0010.jpg=1.000=0=0=1,
19.250=crd0011.jpg=1.000=0=0=1,
19.375=crd0012.jpg=1.000=0=0=1,
19.500=crd0013.jpg=1.000=0=0=1,
19.625=crd0014.jpg=1.000=0=0=1,
19.750=crd0015.jpg=1.000=0=0=1,
19.875=crd0016.jpg=1.000=0=0=1,
20.000=yyy0001.jpg=1.000=0=0=1,
20.125=yyy0002.jpg=1.000=0=0=1,
20.250=yyy0003.jpg=1.000=0=0=1,
20.375=yyy0004.jpg=1.000=0=0=1,
20.500=yyy0005.jpg=1.000=0=0=1,
20.625=yyy0006.jpg=1.000=0=0=1,
20.750=yyy0007.jpg=1.000=0=0=1,
20.875=yyy0008.jpg=1.000=0=0=1,
21.000=yyy0009.jpg=1.000=0=0=1,
21.125=yyy0010.jpg=1.000=0=0=1,
21.250=yyy0011.jpg=1.000=0=0=1,
21.375=yyy0012.jpg=1.000=0=0=1,
21.500=yyy0013.jpg=1.000=0=0=1,
21.625=yyy0014.jpg=1.000=0=0=1,
21.750=yyy0015.jpg=1.000=0=0=1,
21.875=yyy0016.jpg=1.000=0=0=1,
22.000=crd0017.jpg=1.000=0=0=1,
22.125=crd0018.jpg=1.000=0=0=1,
22.250=crd0019.jpg=1.000=0=0=1,
22.375=crd0020.jpg=1.000=0=0=1,
22.500=crd0021.jpg=1.000=0=0=1,
22.625=crd0022.jpg=1.000=0=0=1,
22.750=crd0023.jpg=1.000=0=0=1,
22.875=crd0024.jpg=1.000=0=0=1,
23.000=crd0025.jpg=1.000=0=0=1,
23.125=crd0026.jpg=1.000=0=0=1,
23.250=crd0027.jpg=1.000=0=0=1,
23.375=crd0028.jpg=1.000=0=0=1,
23.500=crd0029.jpg=1.000=0=0=1,
23.625=crd0030.jpg=1.000=0=0=1,
23.750=crd0031.jpg=1.000=0=0=1,
23.875=crd0032.jpg=1.000=0=0=1,
24.000=zzt0001.jpg=1.000=0=0=1,
24.125=zzt0002.jpg=1.000=0=0=1,
24.250=zzt0003.jpg=1.000=0=0=1,
24.375=zzt0004.jpg=1.000=0=0=1,
24.500=zzt0005.jpg=1.000=0=0=1,
24.625=zzt0006.jpg=1.000=0=0=1,
24.750=zzt0007.jpg=1.000=0=0=1,
24.875=zzt0008.jpg=1.000=0=0=1,
25.000=zzt0009.jpg=1.000=0=0=1,
25.125=zzt0010.jpg=1.000=0=0=1,
25.250=zzt0011.jpg=1.000=0=0=1,
25.375=zzt0012.jpg=1.000=0=0=1,
25.500=zzt0013.jpg=1.000=0=0=1,
25.625=zzt0014.jpg=1.000=0=0=1,
25.750=zzt0015.jpg=1.000=0=0=1,
25.875=zzt0016.jpg=1.000=0=0=1,
26.000=crd0033.jpg=1.000=0=0=1,
26.125=crd0034.jpg=1.000=0=0=1,
26.250=crd0035.jpg=1.000=0=0=1,
26.375=crd0036.jpg=1.000=0=0=1,
26.500=crd0037.jpg=1.000=0=0=1,
26.625=crd0038.jpg=1.000=0=0=1,
26.750=crd0039.jpg=1.000=0=0=1,
26.875=crd0040.jpg=1.000=0=0=1,
27.000=crd0041.jpg=1.000=0=0=1,
27.125=crd0042.jpg=1.000=0=0=1,
27.250=crd0043.jpg=1.000=0=0=1,
27.375=crd0044.jpg=1.000=0=0=1,
27.500=crd0045.jpg=1.000=0=0=1,
27.625=crd0046.jpg=1.000=0=0=1,
27.750=crd0047.jpg=1.000=0=0=1,
27.875=crd0048.jpg=1.000=0=0=1,
28.000=zzz0001.jpg=1.000=0=0=1,
28.125=zzz0002.jpg=1.000=0=0=1,
28.250=zzz0003.jpg=1.000=0=0=1,
28.375=zzz0004.jpg=1.000=0=0=1,
28.500=zzz0005.jpg=1.000=0=0=1,
28.625=zzz0006.jpg=1.000=0=0=1,
28.750=zzz0007.jpg=1.000=0=0=1,
28.875=zzz0008.jpg=1.000=0=0=1,
29.000=zzz0009.jpg=1.000=0=0=1,
29.125=zzz0010.jpg=1.000=0=0=1,
29.250=zzz0011.jpg=1.000=0=0=1,
29.375=zzz0012.jpg=1.000=0=0=1,
29.500=zzz0013.jpg=1.000=0=0=1,
29.625=zzz0014.jpg=1.000=0=0=1,
29.750=zzz0015.jpg=1.000=0=0=1,
29.875=zzz0016.jpg=1.000=0=0=1,
30.000=crd0049.jpg=1.000=0=0=1,
30.125=crd0050.jpg=1.000=0=0=1,
30.250=crd0051.jpg=1.000=0=0=1,
30.375=crd0052.jpg=1.000=0=0=1,
30.500=crd0053.jpg=1.000=0=0=1,
30.625=crd0054.jpg=1.000=0=0=1,
30.750=crd0055.jpg=1.000=0=0=1,
30.875=crd0056.jpg=1.000=0=0=1,
31.000=crd0057.jpg=1.000=0=0=1,
31.125=crd0058.jpg=1.000=0=0=1,
31.250=crd0059.jpg=1.000=0=0=1,
31.375=crd0060.jpg=1.000=0=0=1,
31.500=crd0061.jpg=1.000=0=0=1,
31.625=crd0062.jpg=1.000=0=0=1,
31.750=crd0063.jpg=1.000=0=0=1,
31.875=crd0064.jpg=1.000=0=0=1,
32.000=wa.jpg=1.000=0=0=1,
32.063=crd0001.jpg=1.000=0=0=1,
32.125=wa.jpg=1.000=0=0=1,
32.188=crd0002.jpg=1.000=0=0=1,
32.250=wa.jpg=1.000=0=0=1,
32.313=crd0003.jpg=1.000=0=0=1,
32.375=wa.jpg=1.000=0=0=1,
32.438=crd0004.jpg=1.000=0=0=1,
32.500=wa.jpg=1.000=0=0=1,
32.563=crd0005.jpg=1.000=0=0=1,
32.625=wa.jpg=1.000=0=0=1,
32.688=crd0006.jpg=1.000=0=0=1,
32.750=wa.jpg=1.000=0=0=1,
32.813=crd0007.jpg=1.000=0=0=1,
32.875=wa.jpg=1.000=0=0=1,
32.938=crd0008.jpg=1.000=0=0=1,
33.000=wa.jpg=1.000=0=0=1,
33.063=crd0009.jpg=1.000=0=0=1,
33.125=wa.jpg=1.000=0=0=1,
33.188=crd0010.jpg=1.000=0=0=1,
33.250=wa.jpg=1.000=0=0=1,
33.313=crd0011.jpg=1.000=0=0=1,
33.375=wa.jpg=1.000=0=0=1,
33.438=crd0012.jpg=1.000=0=0=1,
33.500=wa.jpg=1.000=0=0=1,
33.563=crd0013.jpg=1.000=0=0=1,
33.625=wa.jpg=1.000=0=0=1,
33.688=crd0014.jpg=1.000=0=0=1,
33.750=wa.jpg=1.000=0=0=1,
33.813=crd0015.jpg=1.000=0=0=1,
33.875=wa.jpg=1.000=0=0=1,
33.938=crd0016.jpg=1.000=0=0=1,
34.000=wa.jpg=1.000=0=0=1,
34.063=crd0017.jpg=1.000=0=0=1,
34.125=wa.jpg=1.000=0=0=1,
34.188=crd0018.jpg=1.000=0=0=1,
34.250=wa.jpg=1.000=0=0=1,
34.313=crd0019.jpg=1.000=0=0=1,
34.375=wa.jpg=1.000=0=0=1,
34.438=crd0020.jpg=1.000=0=0=1,
34.500=wa.jpg=1.000=0=0=1,
34.563=crd0021.jpg=1.000=0=0=1,
34.625=wa.jpg=1.000=0=0=1,
34.688=crd0022.jpg=1.000=0=0=1,
34.750=wa.jpg=1.000=0=0=1,
34.813=crd0023.jpg=1.000=0=0=1,
34.875=wa.jpg=1.000=0=0=1,
34.938=crd0024.jpg=1.000=0=0=1,
35.000=wa.jpg=1.000=0=0=1,
35.063=crd0025.jpg=1.000=0=0=1,
35.125=wa.jpg=1.000=0=0=1,
35.188=crd0026.jpg=1.000=0=0=1,
35.250=wa.jpg=1.000=0=0=1,
35.313=crd0027.jpg=1.000=0=0=1,
35.375=wa.jpg=1.000=0=0=1,
35.438=crd0028.jpg=1.000=0=0=1,
35.500=wa.jpg=1.000=0=0=1,
35.563=crd0029.jpg=1.000=0=0=1,
35.625=wa.jpg=1.000=0=0=1,
35.688=crd0030.jpg=1.000=0=0=1,
35.750=wa.jpg=1.000=0=0=1,
35.813=crd0031.jpg=1.000=0=0=1,
35.875=wa.jpg=1.000=0=0=1,
35.938=crd0032.jpg=1.000=0=0=1,
36.000=wa.jpg=1.000=0=0=1,
36.063=crd0033.jpg=1.000=0=0=1,
36.125=wa.jpg=1.000=0=0=1,
36.188=crd0034.jpg=1.000=0=0=1,
36.250=wa.jpg=1.000=0=0=1,
36.313=crd0035.jpg=1.000=0=0=1,
36.375=wa.jpg=1.000=0=0=1,
36.438=crd0036.jpg=1.000=0=0=1,
36.500=wa.jpg=1.000=0=0=1,
36.563=crd0037.jpg=1.000=0=0=1,
36.625=wa.jpg=1.000=0=0=1,
36.688=crd0038.jpg=1.000=0=0=1,
36.750=wa.jpg=1.000=0=0=1,
36.813=crd0039.jpg=1.000=0=0=1,
36.875=wa.jpg=1.000=0=0=1,
36.938=crd0040.jpg=1.000=0=0=1,
37.000=wa.jpg=1.000=0=0=1,
37.063=crd0041.jpg=1.000=0=0=1,
37.125=wa.jpg=1.000=0=0=1,
37.188=crd0042.jpg=1.000=0=0=1,
37.250=wa.jpg=1.000=0=0=1,
37.313=crd0043.jpg=1.000=0=0=1,
37.375=wa.jpg=1.000=0=0=1,
37.438=crd0044.jpg=1.000=0=0=1,
37.500=wa.jpg=1.000=0=0=1,
37.563=crd0045.jpg=1.000=0=0=1,
37.625=wa.jpg=1.000=0=0=1,
37.688=crd0046.jpg=1.000=0=0=1,
37.750=wa.jpg=1.000=0=0=1,
37.813=crd0047.jpg=1.000=0=0=1,
37.875=wa.jpg=1.000=0=0=1,
37.938=crd0048.jpg=1.000=0=0=1,
38.000=wa.jpg=1.000=0=0=1,
38.063=crd0049.jpg=1.000=0=0=1,
38.125=wa.jpg=1.000=0=0=1,
38.188=crd0050.jpg=1.000=0=0=1,
38.250=wa.jpg=1.000=0=0=1,
38.313=crd0051.jpg=1.000=0=0=1,
38.375=wa.jpg=1.000=0=0=1,
38.438=crd0052.jpg=1.000=0=0=1,
38.500=wa.jpg=1.000=0=0=1,
38.563=crd0053.jpg=1.000=0=0=1,
38.625=wa.jpg=1.000=0=0=1,
38.688=crd0054.jpg=1.000=0=0=1,
38.750=wa.jpg=1.000=0=0=1,
38.813=crd0055.jpg=1.000=0=0=1,
38.875=wa.jpg=1.000=0=0=1,
38.938=crd0056.jpg=1.000=0=0=1,
39.000=wa.jpg=1.000=0=0=1,
39.063=crd0057.jpg=1.000=0=0=1,
39.125=wa.jpg=1.000=0=0=1,
39.188=crd0058.jpg=1.000=0=0=1,
39.250=wa.jpg=1.000=0=0=1,
39.313=crd0059.jpg=1.000=0=0=1,
39.375=wa.jpg=1.000=0=0=1,
39.438=crd0060.jpg=1.000=0=0=1,
39.500=wa.jpg=1.000=0=0=1,
39.563=crd0061.jpg=1.000=0=0=1,
39.625=wa.jpg=1.000=0=0=1,
39.688=crd0062.jpg=1.000=0=0=1,
39.750=wa.jpg=1.000=0=0=1,
39.813=crd0063.jpg=1.000=0=0=1,
39.875=wa.jpg=1.000=0=0=1,
39.938=crd0064.jpg=1.000=0=0=1,
40.000=wa.jpg=1.000=0=0=1,
40.063=crd0001.jpg=1.000=0=0=1,
40.125=wa.jpg=1.000=0=0=1,
40.188=crd0002.jpg=1.000=0=0=1,
40.250=wa.jpg=1.000=0=0=1,
40.313=crd0003.jpg=1.000=0=0=1,
40.375=wa.jpg=1.000=0=0=1,
40.438=crd0004.jpg=1.000=0=0=1,
40.500=wa.jpg=1.000=0=0=1,
40.563=crd0005.jpg=1.000=0=0=1,
40.625=wa.jpg=1.000=0=0=1,
40.688=crd0006.jpg=1.000=0=0=1,
40.750=wa.jpg=1.000=0=0=1,
40.813=crd0007.jpg=1.000=0=0=1,
40.875=wa.jpg=1.000=0=0=1,
40.938=crd0008.jpg=1.000=0=0=1,
41.000=wa.jpg=1.000=0=0=1,
41.063=crd0009.jpg=1.000=0=0=1,
41.125=wa.jpg=1.000=0=0=1,
41.188=crd0010.jpg=1.000=0=0=1,
41.250=wa.jpg=1.000=0=0=1,
41.313=crd0011.jpg=1.000=0=0=1,
41.375=wa.jpg=1.000=0=0=1,
41.438=crd0012.jpg=1.000=0=0=1,
41.500=wa.jpg=1.000=0=0=1,
41.563=crd0013.jpg=1.000=0=0=1,
41.625=wa.jpg=1.000=0=0=1,
41.688=crd0014.jpg=1.000=0=0=1,
41.750=wa.jpg=1.000=0=0=1,
41.813=crd0015.jpg=1.000=0=0=1,
41.875=wa.jpg=1.000=0=0=1,
41.938=crd0016.jpg=1.000=0=0=1,
42.000=wa.jpg=1.000=0=0=1,
42.063=crd0017.jpg=1.000=0=0=1,
42.125=wa.jpg=1.000=0=0=1,
42.188=crd0018.jpg=1.000=0=0=1,
42.250=wa.jpg=1.000=0=0=1,
42.313=crd0019.jpg=1.000=0=0=1,
42.375=wa.jpg=1.000=0=0=1,
42.438=crd0020.jpg=1.000=0=0=1,
42.500=wa.jpg=1.000=0=0=1,
42.563=crd0021.jpg=1.000=0=0=1,
42.625=wa.jpg=1.000=0=0=1,
42.688=crd0022.jpg=1.000=0=0=1,
42.750=wa.jpg=1.000=0=0=1,
42.813=crd0023.jpg=1.000=0=0=1,
42.875=wa.jpg=1.000=0=0=1,
42.938=crd0024.jpg=1.000=0=0=1,
43.000=wa.jpg=1.000=0=0=1,
43.063=crd0025.jpg=1.000=0=0=1,
43.125=wa.jpg=1.000=0=0=1,
43.188=crd0026.jpg=1.000=0=0=1,
43.250=wa.jpg=1.000=0=0=1,
43.313=crd0027.jpg=1.000=0=0=1,
43.375=wa.jpg=1.000=0=0=1,
43.438=crd0028.jpg=1.000=0=0=1,
43.500=wa.jpg=1.000=0=0=1,
43.563=crd0029.jpg=1.000=0=0=1,
43.625=wa.jpg=1.000=0=0=1,
43.688=crd0030.jpg=1.000=0=0=1,
43.750=wa.jpg=1.000=0=0=1,
43.813=crd0031.jpg=1.000=0=0=1,
43.875=wa.jpg=1.000=0=0=1,
43.938=crd0032.jpg=1.000=0=0=1,
44.000=wa.jpg=1.000=0=0=1,
44.063=ria0001.jpg=1.000=0=0=1,
44.125=wa.jpg=1.000=0=0=1,
44.188=crd0033.jpg=1.000=0=0=1,
44.250=wa.jpg=1.000=0=0=1,
44.313=ria0002.jpg=1.000=0=0=1,
44.375=wa.jpg=1.000=0=0=1,
44.438=crd0034.jpg=1.000=0=0=1,
44.500=wa.jpg=1.000=0=0=1,
44.563=ria0003.jpg=1.000=0=0=1,
44.625=wa.jpg=1.000=0=0=1,
44.688=crd0035.jpg=1.000=0=0=1,
44.750=wa.jpg=1.000=0=0=1,
44.813=ria0004.jpg=1.000=0=0=1,
44.875=wa.jpg=1.000=0=0=1,
44.938=crd0036.jpg=1.000=0=0=1,
45.000=wa.jpg=1.000=0=0=1,
45.063=ria0005.jpg=1.000=0=0=1,
45.125=wa.jpg=1.000=0=0=1,
45.188=crd0037.jpg=1.000=0=0=1,
45.250=wa.jpg=1.000=0=0=1,
45.313=ria0006.jpg=1.000=0=0=1,
45.375=wa.jpg=1.000=0=0=1,
45.438=crd0038.jpg=1.000=0=0=1,
45.500=wa.jpg=1.000=0=0=1,
45.563=ria0007.jpg=1.000=0=0=1,
45.625=wa.jpg=1.000=0=0=1,
45.688=crd0039.jpg=1.000=0=0=1,
45.750=wa.jpg=1.000=0=0=1,
45.813=ria0008.jpg=1.000=0=0=1,
45.875=wa.jpg=1.000=0=0=1,
45.938=crd0040.jpg=1.000=0=0=1,
46.063=ria0009.jpg=1.000=0=0=1,
46.188=crd0041.jpg=1.000=0=0=1,
46.313=ria0010.jpg=1.000=0=0=1,
46.438=crd0042.jpg=1.000=0=0=1,
46.563=ria0011.jpg=1.000=0=0=1,
46.688=crd0043.jpg=1.000=0=0=1,
46.813=ria0012.jpg=1.000=0=0=1,
46.938=crd0044.jpg=1.000=0=0=1,
47.063=ria0013.jpg=1.000=0=0=1,
47.188=crd0045.jpg=1.000=0=0=1,
47.313=ria0014.jpg=1.000=0=0=1,
47.438=crd0046.jpg=1.000=0=0=1,
47.563=ria0015.jpg=1.000=0=0=1,
47.688=crd0047.jpg=1.000=0=0=1,
47.813=ria0016.jpg=1.000=0=0=1,
47.938=crd0048.jpg=1.000=0=0=1,
48.000=xxx0001.jpg=1.000=0=0=1,
48.125=xxx0002.jpg=1.000=0=0=1,
48.250=xxx0003.jpg=1.000=0=0=1,
48.375=xxx0004.jpg=1.000=0=0=1,
48.500=xxx0005.jpg=1.000=0=0=1,
48.625=xxx0006.jpg=1.000=0=0=1,
48.750=xxx0007.jpg=1.000=0=0=1,
48.875=xxx0008.jpg=1.000=0=0=1,
49.000=xxx0009.jpg=1.000=0=0=1,
49.125=xxx0010.jpg=1.000=0=0=1,
49.250=xxx0011.jpg=1.000=0=0=1,
49.375=xxx0012.jpg=1.000=0=0=1,
49.500=xxx0013.jpg=1.000=0=0=1,
49.625=xxx0014.jpg=1.000=0=0=1,
49.750=xxx0015.jpg=1.000=0=0=1,
49.875=xxx0016.jpg=1.000=0=0=1,
50.000=yyy0001.jpg=1.000=0=0=1,
50.125=yyy0002.jpg=1.000=0=0=1,
50.250=yyy0003.jpg=1.000=0=0=1,
50.375=yyy0004.jpg=1.000=0=0=1,
50.500=yyy0005.jpg=1.000=0=0=1,
50.625=yyy0006.jpg=1.000=0=0=1,
50.750=yyy0007.jpg=1.000=0=0=1,
50.875=yyy0008.jpg=1.000=0=0=1,
51.000=yyy0009.jpg=1.000=0=0=1,
51.125=yyy0010.jpg=1.000=0=0=1,
51.250=yyy0011.jpg=1.000=0=0=1,
51.375=yyy0012.jpg=1.000=0=0=1,
51.500=yyy0013.jpg=1.000=0=0=1,
51.625=yyy0014.jpg=1.000=0=0=1,
51.750=yyy0015.jpg=1.000=0=0=1,
51.875=yyy0016.jpg=1.000=0=0=1,
52.000=zzt0001.jpg=1.000=0=0=1,
52.125=zzt0002.jpg=1.000=0=0=1,
52.250=zzt0003.jpg=1.000=0=0=1,
52.375=zzt0004.jpg=1.000=0=0=1,
52.500=zzt0005.jpg=1.000=0=0=1,
52.625=zzt0006.jpg=1.000=0=0=1,
52.750=zzt0007.jpg=1.000=0=0=1,
52.875=zzt0008.jpg=1.000=0=0=1,
53.000=zzt0009.jpg=1.000=0=0=1,
53.125=zzt0010.jpg=1.000=0=0=1,
53.250=zzt0011.jpg=1.000=0=0=1,
53.375=zzt0012.jpg=1.000=0=0=1,
53.500=zzt0013.jpg=1.000=0=0=1,
53.625=zzt0014.jpg=1.000=0=0=1,
53.750=zzt0015.jpg=1.000=0=0=1,
53.875=zzt0016.jpg=1.000=0=0=1,
54.000=zzz0001.jpg=1.000=0=0=1,
54.125=zzz0002.jpg=1.000=0=0=1,
54.250=zzz0003.jpg=1.000=0=0=1,
54.375=zzz0004.jpg=1.000=0=0=1,
54.500=zzz0005.jpg=1.000=0=0=1,
54.625=zzz0006.jpg=1.000=0=0=1,
54.750=zzz0007.jpg=1.000=0=0=1,
54.875=zzz0008.jpg=1.000=0=0=1,
55.000=zzz0009.jpg=1.000=0=0=1,
55.125=zzz0010.jpg=1.000=0=0=1,
55.250=zzz0011.jpg=1.000=0=0=1,
55.375=zzz0012.jpg=1.000=0=0=1,
55.500=zzz0013.jpg=1.000=0=0=1,
55.625=zzz0014.jpg=1.000=0=0=1,
55.750=zzz0015.jpg=1.000=0=0=1,
55.875=zzz0016.jpg=1.000=0=0=1,
56.000=zzt0001.jpg=1.000=0=0=1,
56.125=zzt0002.jpg=1.000=0=0=1,
56.250=zzt0003.jpg=1.000=0=0=1,
56.375=zzt0004.jpg=1.000=0=0=1,
56.500=zzt0005.jpg=1.000=0=0=1,
56.625=zzt0006.jpg=1.000=0=0=1,
56.750=zzt0007.jpg=1.000=0=0=1,
56.875=zzt0008.jpg=1.000=0=0=1,
57.000=zzt0009.jpg=1.000=0=0=1,
57.125=zzt0010.jpg=1.000=0=0=1,
57.250=zzt0011.jpg=1.000=0=0=1,
57.375=zzt0012.jpg=1.000=0=0=1,
57.500=zzt0013.jpg=1.000=0=0=1,
57.625=zzt0014.jpg=1.000=0=0=1,
57.750=zzt0015.jpg=1.000=0=0=1,
57.875=zzt0016.jpg=1.000=0=0=1,
58.000=zzz0001.jpg=1.000=0=0=1,
58.125=zzz0002.jpg=1.000=0=0=1,
58.250=zzz0003.jpg=1.000=0=0=1,
58.375=zzz0004.jpg=1.000=0=0=1,
58.500=zzz0005.jpg=1.000=0=0=1,
58.625=zzz0006.jpg=1.000=0=0=1,
58.750=zzz0007.jpg=1.000=0=0=1,
58.875=zzz0008.jpg=1.000=0=0=1,
59.000=zzz0009.jpg=1.000=0=0=1,
59.125=zzz0010.jpg=1.000=0=0=1,
59.250=zzz0011.jpg=1.000=0=0=1,
59.375=zzz0012.jpg=1.000=0=0=1,
59.500=zzz0013.jpg=1.000=0=0=1,
59.625=zzz0014.jpg=1.000=0=0=1,
59.750=zzz0015.jpg=1.000=0=0=1,
59.875=zzz0016.jpg=1.000=0=0=1,
60.000=yyy0001.jpg=1.000=0=0=1,
60.125=yyy0002.jpg=1.000=0=0=1,
60.250=yyy0003.jpg=1.000=0=0=1,
60.375=yyy0004.jpg=1.000=0=0=1,
60.500=yyy0005.jpg=1.000=0=0=1,
60.625=yyy0006.jpg=1.000=0=0=1,
60.750=yyy0007.jpg=1.000=0=0=1,
60.875=yyy0008.jpg=1.000=0=0=1,
61.000=yyy0009.jpg=1.000=0=0=1,
61.125=yyy0010.jpg=1.000=0=0=1,
61.250=yyy0011.jpg=1.000=0=0=1,
61.375=yyy0012.jpg=1.000=0=0=1,
61.500=yyy0013.jpg=1.000=0=0=1,
61.625=yyy0014.jpg=1.000=0=0=1,
61.750=yyy0015.jpg=1.000=0=0=1,
61.875=yyy0016.jpg=1.000=0=0=1,
62.000=zzz0001.jpg=1.000=0=0=1,
62.125=zzz0002.jpg=1.000=0=0=1,
62.250=zzz0003.jpg=1.000=0=0=1,
62.375=zzz0004.jpg=1.000=0=0=1,
62.500=zzz0005.jpg=1.000=0=0=1,
62.625=zzz0006.jpg=1.000=0=0=1,
62.750=zzz0007.jpg=1.000=0=0=1,
62.875=zzz0008.jpg=1.000=0=0=1,
63.000=zzz0009.jpg=1.000=0=0=1,
63.125=zzz0010.jpg=1.000=0=0=1,
63.250=zzz0011.jpg=1.000=0=0=1,
63.375=zzz0012.jpg=1.000=0=0=1,
63.500=zzz0013.jpg=1.000=0=0=1,
63.625=zzz0014.jpg=1.000=0=0=1,
63.750=zzz0015.jpg=1.000=0=0=1,
63.875=zzz0016.jpg=1.000=0=0=1,
64.000=xxx0001.jpg=1.000=0=0=1,
64.125=xxx0002.jpg=1.000=0=0=1,
64.250=xxx0003.jpg=1.000=0=0=1,
64.375=xxx0004.jpg=1.000=0=0=1,
64.500=xxx0005.jpg=1.000=0=0=1,
64.625=xxx0006.jpg=1.000=0=0=1,
64.750=xxx0007.jpg=1.000=0=0=1,
64.875=xxx0008.jpg=1.000=0=0=1,
65.000=xxx0009.jpg=1.000=0=0=1,
65.125=xxx0010.jpg=1.000=0=0=1,
65.250=xxx0011.jpg=1.000=0=0=1,
65.375=xxx0012.jpg=1.000=0=0=1,
65.500=xxx0013.jpg=1.000=0=0=1,
65.625=xxx0014.jpg=1.000=0=0=1,
65.750=xxx0015.jpg=1.000=0=0=1,
65.875=xxx0016.jpg=1.000=0=0=1,
66.000=yyy0001.jpg=1.000=0=0=1,
66.125=yyy0002.jpg=1.000=0=0=1,
66.250=yyy0003.jpg=1.000=0=0=1,
66.375=yyy0004.jpg=1.000=0=0=1,
66.500=yyy0005.jpg=1.000=0=0=1,
66.625=yyy0006.jpg=1.000=0=0=1,
66.750=yyy0007.jpg=1.000=0=0=1,
66.875=yyy0008.jpg=1.000=0=0=1,
67.000=yyy0009.jpg=1.000=0=0=1,
67.125=yyy0010.jpg=1.000=0=0=1,
67.250=yyy0011.jpg=1.000=0=0=1,
67.375=yyy0012.jpg=1.000=0=0=1,
67.500=yyy0013.jpg=1.000=0=0=1,
67.625=yyy0014.jpg=1.000=0=0=1,
67.750=yyy0015.jpg=1.000=0=0=1,
67.875=yyy0016.jpg=1.000=0=0=1,
68.000=zzt0001.jpg=1.000=0=0=1,
68.125=zzt0002.jpg=1.000=0=0=1,
68.250=zzt0003.jpg=1.000=0=0=1,
68.375=zzt0004.jpg=1.000=0=0=1,
68.500=zzt0005.jpg=1.000=0=0=1,
68.625=zzt0006.jpg=1.000=0=0=1,
68.750=zzt0007.jpg=1.000=0=0=1,
68.875=zzt0008.jpg=1.000=0=0=1,
69.000=zzt0009.jpg=1.000=0=0=1,
69.125=zzt0010.jpg=1.000=0=0=1,
69.250=zzt0011.jpg=1.000=0=0=1,
69.375=zzt0012.jpg=1.000=0=0=1,
69.500=zzt0013.jpg=1.000=0=0=1,
69.625=zzt0014.jpg=1.000=0=0=1,
69.750=zzt0015.jpg=1.000=0=0=1,
69.875=zzt0016.jpg=1.000=0=0=1,
70.000=zzz0001.jpg=1.000=0=0=1,
70.125=zzz0002.jpg=1.000=0=0=1,
70.250=zzz0003.jpg=1.000=0=0=1,
70.375=zzz0004.jpg=1.000=0=0=1,
70.500=zzz0005.jpg=1.000=0=0=1,
70.625=zzz0006.jpg=1.000=0=0=1,
70.750=zzz0007.jpg=1.000=0=0=1,
70.875=zzz0008.jpg=1.000=0=0=1,
71.000=zzz0009.jpg=1.000=0=0=1,
71.125=zzz0010.jpg=1.000=0=0=1,
71.250=zzz0011.jpg=1.000=0=0=1,
71.375=zzz0012.jpg=1.000=0=0=1,
71.500=zzz0013.jpg=1.000=0=0=1,
71.625=zzz0014.jpg=1.000=0=0=1,
71.750=zzz0015.jpg=1.000=0=0=1,
71.875=zzz0016.jpg=1.000=0=0=1,
72.000=yyy0001.jpg=1.000=0=0=1,
72.125=yyy0002.jpg=1.000=0=0=1,
72.250=yyy0003.jpg=1.000=0=0=1,
72.375=yyy0004.jpg=1.000=0=0=1,
72.500=yyy0005.jpg=1.000=0=0=1,
72.625=yyy0006.jpg=1.000=0=0=1,
72.750=yyy0007.jpg=1.000=0=0=1,
72.875=yyy0008.jpg=1.000=0=0=1,
73.000=yyy0009.jpg=1.000=0=0=1,
73.125=yyy0010.jpg=1.000=0=0=1,
73.250=yyy0011.jpg=1.000=0=0=1,
73.375=yyy0012.jpg=1.000=0=0=1,
73.500=yyy0013.jpg=1.000=0=0=1,
73.625=yyy0014.jpg=1.000=0=0=1,
73.750=yyy0015.jpg=1.000=0=0=1,
73.875=yyy0016.jpg=1.000=0=0=1,
74.000=zzz0001.jpg=1.000=0=0=1,
74.125=zzz0002.jpg=1.000=0=0=1,
74.250=zzz0003.jpg=1.000=0=0=1,
74.375=zzz0004.jpg=1.000=0=0=1,
74.500=zzz0005.jpg=1.000=0=0=1,
74.625=zzz0006.jpg=1.000=0=0=1,
74.750=zzz0007.jpg=1.000=0=0=1,
74.875=zzz0008.jpg=1.000=0=0=1,
75.000=zzz0009.jpg=1.000=0=0=1,
75.125=zzz0010.jpg=1.000=0=0=1,
75.250=zzz0011.jpg=1.000=0=0=1,
75.375=zzz0012.jpg=1.000=0=0=1,
75.500=zzz0013.jpg=1.000=0=0=1,
75.625=zzz0014.jpg=1.000=0=0=1,
75.750=zzz0015.jpg=1.000=0=0=1,
75.875=zzz0016.jpg=1.000=0=0=1,
76.000=zzt0001.jpg=1.000=0=0=1,
76.125=zzt0002.jpg=1.000=0=0=1,
76.250=zzt0003.jpg=1.000=0=0=1,
76.375=zzt0004.jpg=1.000=0=0=1,
76.500=zzt0005.jpg=1.000=0=0=1,
76.625=zzt0006.jpg=1.000=0=0=1,
76.750=zzt0007.jpg=1.000=0=0=1,
76.875=zzt0008.jpg=1.000=0=0=1,
77.000=zzt0009.jpg=1.000=0=0=1,
77.125=zzt0010.jpg=1.000=0=0=1,
77.250=zzt0011.jpg=1.000=0=0=1,
77.375=zzt0012.jpg=1.000=0=0=1,
77.500=zzt0013.jpg=1.000=0=0=1,
77.625=zzt0014.jpg=1.000=0=0=1,
77.750=zzt0015.jpg=1.000=0=0=1,
77.875=zzt0016.jpg=1.000=0=0=1,
78.000=zzz0001.jpg=1.000=0=0=1,
78.125=zzz0002.jpg=1.000=0=0=1,
78.250=zzz0003.jpg=1.000=0=0=1,
78.375=zzz0004.jpg=1.000=0=0=1,
78.500=zzz0005.jpg=1.000=0=0=1,
78.625=zzz0006.jpg=1.000=0=0=1,
78.750=zzz0007.jpg=1.000=0=0=1,
78.875=zzz0008.jpg=1.000=0=0=1,
79.000=zzz0009.jpg=1.000=0=0=1,
79.125=zzz0010.jpg=1.000=0=0=1,
79.250=zzz0011.jpg=1.000=0=0=1,
79.375=zzz0012.jpg=1.000=0=0=1,
79.500=zzz0013.jpg=1.000=0=0=1,
79.625=zzz0014.jpg=1.000=0=0=1,
79.750=zzz0015.jpg=1.000=0=0=1,
79.875=zzz0016.jpg=1.000=0=0=1,
80.000=ria0001.jpg=1.000=0=0=1,
80.063=drum0001.jpg=1.000=0=0=1,
80.125=ria0002.jpg=1.000=0=0=1,
80.188=drum0002.jpg=1.000=0=0=1,
80.250=ria0003.jpg=1.000=0=0=1,
80.313=drum0003.jpg=1.000=0=0=1,
80.375=ria0004.jpg=1.000=0=0=1,
80.438=drum0004.jpg=1.000=0=0=1,
80.500=ria0005.jpg=1.000=0=0=1,
80.563=drum0005.jpg=1.000=0=0=1,
80.625=ria0006.jpg=1.000=0=0=1,
80.688=drum0006.jpg=1.000=0=0=1,
80.750=ria0007.jpg=1.000=0=0=1,
80.813=drum0007.jpg=1.000=0=0=1,
80.875=ria0008.jpg=1.000=0=0=1,
80.938=drum0008.jpg=1.000=0=0=1,
81.000=ria0009.jpg=1.000=0=0=1,
81.063=drum0009.jpg=1.000=0=0=1,
81.125=ria0010.jpg=1.000=0=0=1,
81.188=drum0010.jpg=1.000=0=0=1,
81.250=ria0011.jpg=1.000=0=0=1,
81.313=drum0011.jpg=1.000=0=0=1,
81.375=ria0012.jpg=1.000=0=0=1,
81.438=drum0012.jpg=1.000=0=0=1,
81.500=ria0013.jpg=1.000=0=0=1,
81.563=drum0013.jpg=1.000=0=0=1,
81.625=ria0014.jpg=1.000=0=0=1,
81.688=drum0014.jpg=1.000=0=0=1,
81.750=ria0015.jpg=1.000=0=0=1,
81.813=drum0015.jpg=1.000=0=0=1,
81.875=ria0016.jpg=1.000=0=0=1,
81.938=drum0016.jpg=1.000=0=0=1,
82.000=xxx0001.jpg=1.000=0=0=1,
82.125=xxx0002.jpg=1.000=0=0=1,
82.250=xxx0003.jpg=1.000=0=0=1,
82.375=xxx0004.jpg=1.000=0=0=1,
82.500=xxx0005.jpg=1.000=0=0=1,
82.625=xxx0006.jpg=1.000=0=0=1,
82.750=xxx0007.jpg=1.000=0=0=1,
82.875=xxx0008.jpg=1.000=0=0=1,
83.000=xxx0009.jpg=1.000=0=0=1,
83.125=xxx0010.jpg=1.000=0=0=1,
83.250=xxx0011.jpg=1.000=0=0=1,
83.375=xxx0012.jpg=1.000=0=0=1,
83.500=xxx0013.jpg=1.000=0=0=1,
83.625=xxx0014.jpg=1.000=0=0=1,
83.750=xxx0015.jpg=1.000=0=0=1,
83.875=xxx0016.jpg=1.000=0=0=1,
84.000=ria0001.jpg=1.000=0=0=1,
84.063=drum0017.jpg=1.000=0=0=1,
84.125=ria0002.jpg=1.000=0=0=1,
84.188=drum0018.jpg=1.000=0=0=1,
84.250=ria0003.jpg=1.000=0=0=1,
84.313=drum0019.jpg=1.000=0=0=1,
84.375=ria0004.jpg=1.000=0=0=1,
84.438=drum0020.jpg=1.000=0=0=1,
84.500=ria0005.jpg=1.000=0=0=1,
84.563=drum0021.jpg=1.000=0=0=1,
84.625=ria0006.jpg=1.000=0=0=1,
84.688=drum0022.jpg=1.000=0=0=1,
84.750=ria0007.jpg=1.000=0=0=1,
84.813=drum0023.jpg=1.000=0=0=1,
84.875=ria0008.jpg=1.000=0=0=1,
84.938=drum0024.jpg=1.000=0=0=1,
85.000=ria0009.jpg=1.000=0=0=1,
85.063=drum0025.jpg=1.000=0=0=1,
85.125=ria0010.jpg=1.000=0=0=1,
85.188=drum0026.jpg=1.000=0=0=1,
85.250=ria0011.jpg=1.000=0=0=1,
85.313=drum0027.jpg=1.000=0=0=1,
85.375=ria0012.jpg=1.000=0=0=1,
85.438=drum0028.jpg=1.000=0=0=1,
85.500=ria0013.jpg=1.000=0=0=1,
85.563=drum0029.jpg=1.000=0=0=1,
85.625=ria0014.jpg=1.000=0=0=1,
85.688=drum0030.jpg=1.000=0=0=1,
85.750=ria0015.jpg=1.000=0=0=1,
85.813=drum0031.jpg=1.000=0=0=1,
85.875=ria0016.jpg=1.000=0=0=1,
85.938=drum0032.jpg=1.000=0=0=1,
86.000=yyy0001.jpg=1.000=0=0=1,
86.125=yyy0002.jpg=1.000=0=0=1,
86.250=yyy0003.jpg=1.000=0=0=1,
86.375=yyy0004.jpg=1.000=0=0=1,
86.500=yyy0005.jpg=1.000=0=0=1,
86.625=yyy0006.jpg=1.000=0=0=1,
86.750=yyy0007.jpg=1.000=0=0=1,
86.875=yyy0008.jpg=1.000=0=0=1,
87.000=yyy0009.jpg=1.000=0=0=1,
87.125=yyy0010.jpg=1.000=0=0=1,
87.250=yyy0011.jpg=1.000=0=0=1,
87.375=yyy0012.jpg=1.000=0=0=1,
87.500=yyy0013.jpg=1.000=0=0=1,
87.625=yyy0014.jpg=1.000=0=0=1,
87.750=yyy0015.jpg=1.000=0=0=1,
87.875=yyy0016.jpg=1.000=0=0=1,
88.000=ria0001.jpg=1.000=0=0=1,
88.063=drum0001.jpg=1.000=0=0=1,
88.125=ria0002.jpg=1.000=0=0=1,
88.188=drum0002.jpg=1.000=0=0=1,
88.250=ria0003.jpg=1.000=0=0=1,
88.313=drum0003.jpg=1.000=0=0=1,
88.375=ria0004.jpg=1.000=0=0=1,
88.438=drum0004.jpg=1.000=0=0=1,
88.500=ria0005.jpg=1.000=0=0=1,
88.563=drum0005.jpg=1.000=0=0=1,
88.625=ria0006.jpg=1.000=0=0=1,
88.688=drum0006.jpg=1.000=0=0=1,
88.750=ria0007.jpg=1.000=0=0=1,
88.813=drum0007.jpg=1.000=0=0=1,
88.875=ria0008.jpg=1.000=0=0=1,
88.938=drum0008.jpg=1.000=0=0=1,
89.000=ria0009.jpg=1.000=0=0=1,
89.063=drum0009.jpg=1.000=0=0=1,
89.125=ria0010.jpg=1.000=0=0=1,
89.188=drum0010.jpg=1.000=0=0=1,
89.250=ria0011.jpg=1.000=0=0=1,
89.313=drum0011.jpg=1.000=0=0=1,
89.375=ria0012.jpg=1.000=0=0=1,
89.438=drum0012.jpg=1.000=0=0=1,
89.500=ria0013.jpg=1.000=0=0=1,
89.563=drum0013.jpg=1.000=0=0=1,
89.625=ria0014.jpg=1.000=0=0=1,
89.688=drum0014.jpg=1.000=0=0=1,
89.750=ria0015.jpg=1.000=0=0=1,
89.813=drum0015.jpg=1.000=0=0=1,
89.875=ria0016.jpg=1.000=0=0=1,
89.938=drum0016.jpg=1.000=0=0=1,
90.000=zzt0001.jpg=1.000=0=0=1,
90.125=zzt0002.jpg=1.000=0=0=1,
90.250=zzt0003.jpg=1.000=0=0=1,
90.375=zzt0004.jpg=1.000=0=0=1,
90.500=zzt0005.jpg=1.000=0=0=1,
90.625=zzt0006.jpg=1.000=0=0=1,
90.750=zzt0007.jpg=1.000=0=0=1,
90.875=zzt0008.jpg=1.000=0=0=1,
91.000=zzt0009.jpg=1.000=0=0=1,
91.125=zzt0010.jpg=1.000=0=0=1,
91.250=zzt0011.jpg=1.000=0=0=1,
91.375=zzt0012.jpg=1.000=0=0=1,
91.500=zzt0013.jpg=1.000=0=0=1,
91.625=zzt0014.jpg=1.000=0=0=1,
91.750=zzt0015.jpg=1.000=0=0=1,
91.875=zzt0016.jpg=1.000=0=0=1,
92.000=ria0001.jpg=1.000=0=0=1,
92.063=drum0017.jpg=1.000=0=0=1,
92.125=ria0002.jpg=1.000=0=0=1,
92.188=drum0018.jpg=1.000=0=0=1,
92.250=ria0003.jpg=1.000=0=0=1,
92.313=drum0019.jpg=1.000=0=0=1,
92.375=ria0004.jpg=1.000=0=0=1,
92.438=drum0020.jpg=1.000=0=0=1,
92.500=ria0005.jpg=1.000=0=0=1,
92.563=drum0021.jpg=1.000=0=0=1,
92.625=ria0006.jpg=1.000=0=0=1,
92.688=drum0022.jpg=1.000=0=0=1,
92.750=ria0007.jpg=1.000=0=0=1,
92.813=drum0023.jpg=1.000=0=0=1,
92.875=ria0008.jpg=1.000=0=0=1,
92.938=drum0024.jpg=1.000=0=0=1,
93.000=ria0009.jpg=1.000=0=0=1,
93.063=drum0025.jpg=1.000=0=0=1,
93.125=ria0010.jpg=1.000=0=0=1,
93.188=drum0026.jpg=1.000=0=0=1,
93.250=ria0011.jpg=1.000=0=0=1,
93.313=drum0027.jpg=1.000=0=0=1,
93.375=ria0012.jpg=1.000=0=0=1,
93.438=drum0028.jpg=1.000=0=0=1,
93.500=ria0013.jpg=1.000=0=0=1,
93.563=drum0029.jpg=1.000=0=0=1,
93.625=ria0014.jpg=1.000=0=0=1,
93.688=drum0030.jpg=1.000=0=0=1,
93.750=ria0015.jpg=1.000=0=0=1,
93.813=drum0031.jpg=1.000=0=0=1,
93.875=ria0016.jpg=1.000=0=0=1,
93.938=drum0032.jpg=1.000=0=0=1,
94.000=zzz0001.jpg=1.000=0=0=1,
94.125=zzz0002.jpg=1.000=0=0=1,
94.250=zzz0003.jpg=1.000=0=0=1,
94.375=zzz0004.jpg=1.000=0=0=1,
94.500=zzz0005.jpg=1.000=0=0=1,
94.625=zzz0006.jpg=1.000=0=0=1,
94.750=zzz0007.jpg=1.000=0=0=1,
94.875=zzz0008.jpg=1.000=0=0=1,
95.000=zzz0009.jpg=1.000=0=0=1,
95.125=zzz0010.jpg=1.000=0=0=1,
95.250=zzz0011.jpg=1.000=0=0=1,
95.375=zzz0012.jpg=1.000=0=0=1,
95.500=zzz0013.jpg=1.000=0=0=1,
95.625=zzz0014.jpg=1.000=0=0=1,
95.750=zzz0015.jpg=1.000=0=0=1,
95.875=zzz0016.jpg=1.000=0=0=1,
96.000=ria0001.jpg=1.000=0=0=1,
96.063=drum0001.jpg=1.000=0=0=1,
96.125=ria0002.jpg=1.000=0=0=1,
96.188=drum0002.jpg=1.000=0=0=1,
96.250=ria0003.jpg=1.000=0=0=1,
96.313=drum0003.jpg=1.000=0=0=1,
96.375=ria0004.jpg=1.000=0=0=1,
96.438=drum0004.jpg=1.000=0=0=1,
96.500=ria0005.jpg=1.000=0=0=1,
96.563=drum0005.jpg=1.000=0=0=1,
96.625=ria0006.jpg=1.000=0=0=1,
96.688=drum0006.jpg=1.000=0=0=1,
96.750=ria0007.jpg=1.000=0=0=1,
96.813=drum0007.jpg=1.000=0=0=1,
96.875=ria0008.jpg=1.000=0=0=1,
96.938=drum0008.jpg=1.000=0=0=1,
97.000=ria0009.jpg=1.000=0=0=1,
97.063=drum0009.jpg=1.000=0=0=1,
97.125=ria0010.jpg=1.000=0=0=1,
97.188=drum0010.jpg=1.000=0=0=1,
97.250=ria0011.jpg=1.000=0=0=1,
97.313=drum0011.jpg=1.000=0=0=1,
97.375=ria0012.jpg=1.000=0=0=1,
97.438=drum0012.jpg=1.000=0=0=1,
97.500=ria0013.jpg=1.000=0=0=1,
97.563=drum0013.jpg=1.000=0=0=1,
97.625=ria0014.jpg=1.000=0=0=1,
97.688=drum0014.jpg=1.000=0=0=1,
97.750=ria0015.jpg=1.000=0=0=1,
97.813=drum0015.jpg=1.000=0=0=1,
97.875=ria0016.jpg=1.000=0=0=1,
97.938=drum0016.jpg=1.000=0=0=1,
98.000=xxx0001.jpg=1.000=0=0=1,
98.125=xxx0002.jpg=1.000=0=0=1,
98.250=xxx0003.jpg=1.000=0=0=1,
98.375=xxx0004.jpg=1.000=0=0=1,
98.500=xxx0005.jpg=1.000=0=0=1,
98.625=xxx0006.jpg=1.000=0=0=1,
98.750=xxx0007.jpg=1.000=0=0=1,
98.875=xxx0008.jpg=1.000=0=0=1,
99.000=xxx0009.jpg=1.000=0=0=1,
99.125=xxx0010.jpg=1.000=0=0=1,
99.250=xxx0011.jpg=1.000=0=0=1,
99.375=xxx0012.jpg=1.000=0=0=1,
99.500=xxx0013.jpg=1.000=0=0=1,
99.625=xxx0014.jpg=1.000=0=0=1,
99.750=xxx0015.jpg=1.000=0=0=1,
99.875=xxx0016.jpg=1.000=0=0=1,
100.000=ria0001.jpg=1.000=0=0=1,
100.063=drum0017.jpg=1.000=0=0=1,
100.125=ria0002.jpg=1.000=0=0=1,
100.188=drum0018.jpg=1.000=0=0=1,
100.250=ria0003.jpg=1.000=0=0=1,
100.313=drum0019.jpg=1.000=0=0=1,
100.375=ria0004.jpg=1.000=0=0=1,
100.438=drum0020.jpg=1.000=0=0=1,
100.500=ria0005.jpg=1.000=0=0=1,
100.563=drum0021.jpg=1.000=0=0=1,
100.625=ria0006.jpg=1.000=0=0=1,
100.688=drum0022.jpg=1.000=0=0=1,
100.750=ria0007.jpg=1.000=0=0=1,
100.813=drum0023.jpg=1.000=0=0=1,
100.875=ria0008.jpg=1.000=0=0=1,
100.938=drum0024.jpg=1.000=0=0=1,
101.000=ria0009.jpg=1.000=0=0=1,
101.063=drum0025.jpg=1.000=0=0=1,
101.125=ria0010.jpg=1.000=0=0=1,
101.188=drum0026.jpg=1.000=0=0=1,
101.250=ria0011.jpg=1.000=0=0=1,
101.313=drum0027.jpg=1.000=0=0=1,
101.375=ria0012.jpg=1.000=0=0=1,
101.438=drum0028.jpg=1.000=0=0=1,
101.500=ria0013.jpg=1.000=0=0=1,
101.563=drum0029.jpg=1.000=0=0=1,
101.625=ria0014.jpg=1.000=0=0=1,
101.688=drum0030.jpg=1.000=0=0=1,
101.750=ria0015.jpg=1.000=0=0=1,
101.813=drum0031.jpg=1.000=0=0=1,
101.875=ria0016.jpg=1.000=0=0=1,
101.938=drum0032.jpg=1.000=0=0=1,
102.000=yyy0001.jpg=1.000=0=0=1,
102.125=yyy0002.jpg=1.000=0=0=1,
102.250=yyy0003.jpg=1.000=0=0=1,
102.375=yyy0004.jpg=1.000=0=0=1,
102.500=yyy0005.jpg=1.000=0=0=1,
102.625=yyy0006.jpg=1.000=0=0=1,
102.750=yyy0007.jpg=1.000=0=0=1,
102.875=yyy0008.jpg=1.000=0=0=1,
103.000=yyy0009.jpg=1.000=0=0=1,
103.125=yyy0010.jpg=1.000=0=0=1,
103.250=yyy0011.jpg=1.000=0=0=1,
103.375=yyy0012.jpg=1.000=0=0=1,
103.500=yyy0013.jpg=1.000=0=0=1,
103.625=yyy0014.jpg=1.000=0=0=1,
103.750=yyy0015.jpg=1.000=0=0=1,
103.875=yyy0016.jpg=1.000=0=0=1,
104.000=ria0001.jpg=1.000=0=0=1,
104.063=drum0001.jpg=1.000=0=0=1,
104.125=ria0002.jpg=1.000=0=0=1,
104.188=drum0002.jpg=1.000=0=0=1,
104.250=ria0003.jpg=1.000=0=0=1,
104.313=drum0003.jpg=1.000=0=0=1,
104.375=ria0004.jpg=1.000=0=0=1,
104.438=drum0004.jpg=1.000=0=0=1,
104.500=ria0005.jpg=1.000=0=0=1,
104.563=drum0005.jpg=1.000=0=0=1,
104.625=ria0006.jpg=1.000=0=0=1,
104.688=drum0006.jpg=1.000=0=0=1,
104.750=ria0007.jpg=1.000=0=0=1,
104.813=drum0007.jpg=1.000=0=0=1,
104.875=ria0008.jpg=1.000=0=0=1,
104.938=drum0008.jpg=1.000=0=0=1,
105.000=ria0009.jpg=1.000=0=0=1,
105.063=drum0009.jpg=1.000=0=0=1,
105.125=ria0010.jpg=1.000=0=0=1,
105.188=drum0010.jpg=1.000=0=0=1,
105.250=ria0011.jpg=1.000=0=0=1,
105.313=drum0011.jpg=1.000=0=0=1,
105.375=ria0012.jpg=1.000=0=0=1,
105.438=drum0012.jpg=1.000=0=0=1,
105.500=ria0013.jpg=1.000=0=0=1,
105.563=drum0013.jpg=1.000=0=0=1,
105.625=ria0014.jpg=1.000=0=0=1,
105.688=drum0014.jpg=1.000=0=0=1,
105.750=ria0015.jpg=1.000=0=0=1,
105.813=drum0015.jpg=1.000=0=0=1,
105.875=ria0016.jpg=1.000=0=0=1,
105.938=drum0016.jpg=1.000=0=0=1,
106.000=zzt0001.jpg=1.000=0=0=1,
106.125=zzt0002.jpg=1.000=0=0=1,
106.250=zzt0003.jpg=1.000=0=0=1,
106.375=zzt0004.jpg=1.000=0=0=1,
106.500=zzt0005.jpg=1.000=0=0=1,
106.625=zzt0006.jpg=1.000=0=0=1,
106.750=zzt0007.jpg=1.000=0=0=1,
106.875=zzt0008.jpg=1.000=0=0=1,
107.000=zzt0009.jpg=1.000=0=0=1,
107.125=zzt0010.jpg=1.000=0=0=1,
107.250=zzt0011.jpg=1.000=0=0=1,
107.375=zzt0012.jpg=1.000=0=0=1,
107.500=zzt0013.jpg=1.000=0=0=1,
107.625=zzt0014.jpg=1.000=0=0=1,
107.750=zzt0015.jpg=1.000=0=0=1,
107.875=zzt0016.jpg=1.000=0=0=1,
108.000=ria0001.jpg=1.000=0=0=1,
108.063=drum0017.jpg=1.000=0=0=1,
108.125=ria0002.jpg=1.000=0=0=1,
108.188=drum0018.jpg=1.000=0=0=1,
108.250=ria0003.jpg=1.000=0=0=1,
108.313=drum0019.jpg=1.000=0=0=1,
108.375=ria0004.jpg=1.000=0=0=1,
108.438=drum0020.jpg=1.000=0=0=1,
108.500=ria0005.jpg=1.000=0=0=1,
108.563=drum0021.jpg=1.000=0=0=1,
108.625=ria0006.jpg=1.000=0=0=1,
108.688=drum0022.jpg=1.000=0=0=1,
108.750=ria0007.jpg=1.000=0=0=1,
108.813=drum0023.jpg=1.000=0=0=1,
108.875=ria0008.jpg=1.000=0=0=1,
108.938=drum0024.jpg=1.000=0=0=1,
109.000=ria0009.jpg=1.000=0=0=1,
109.063=drum0025.jpg=1.000=0=0=1,
109.125=ria0010.jpg=1.000=0=0=1,
109.188=drum0026.jpg=1.000=0=0=1,
109.250=ria0011.jpg=1.000=0=0=1,
109.313=drum0027.jpg=1.000=0=0=1,
109.375=ria0012.jpg=1.000=0=0=1,
109.438=drum0028.jpg=1.000=0=0=1,
109.500=ria0013.jpg=1.000=0=0=1,
109.563=drum0029.jpg=1.000=0=0=1,
109.625=ria0014.jpg=1.000=0=0=1,
109.688=drum0030.jpg=1.000=0=0=1,
109.750=ria0015.jpg=1.000=0=0=1,
109.813=drum0031.jpg=1.000=0=0=1,
109.875=ria0016.jpg=1.000=0=0=1,
109.938=drum0032.jpg=1.000=0=0=1,
110.000=zzz0001.jpg=1.000=0=0=1,
110.125=zzz0002.jpg=1.000=0=0=1,
110.250=zzz0003.jpg=1.000=0=0=1,
110.375=zzz0004.jpg=1.000=0=0=1,
110.500=zzz0005.jpg=1.000=0=0=1,
110.625=zzz0006.jpg=1.000=0=0=1,
110.750=zzz0007.jpg=1.000=0=0=1,
110.875=zzz0008.jpg=1.000=0=0=1,
111.000=zzz0009.jpg=1.000=0=0=1,
111.125=zzz0010.jpg=1.000=0=0=1,
111.250=zzz0011.jpg=1.000=0=0=1,
111.375=zzz0012.jpg=1.000=0=0=1,
111.500=zzz0013.jpg=1.000=0=0=1,
111.625=zzz0014.jpg=1.000=0=0=1,
111.750=zzz0015.jpg=1.000=0=0=1,
111.875=zzz0016.jpg=1.000=0=0=1,
112.000=crd0001.jpg=1.000=0=0=1,
112.125=crd0002.jpg=1.000=0=0=1,
112.250=crd0003.jpg=1.000=0=0=1,
112.375=crd0004.jpg=1.000=0=0=1,
112.500=crd0005.jpg=1.000=0=0=1,
112.625=crd0006.jpg=1.000=0=0=1,
112.750=crd0007.jpg=1.000=0=0=1,
112.875=crd0008.jpg=1.000=0=0=1,
113.000=crd0009.jpg=1.000=0=0=1,
113.125=crd0010.jpg=1.000=0=0=1,
113.250=crd0011.jpg=1.000=0=0=1,
113.375=crd0012.jpg=1.000=0=0=1,
113.500=crd0013.jpg=1.000=0=0=1,
113.625=crd0014.jpg=1.000=0=0=1,
113.750=crd0015.jpg=1.000=0=0=1,
113.875=crd0016.jpg=1.000=0=0=1,
114.000=crd0017.jpg=1.000=0=0=1,
114.125=crd0018.jpg=1.000=0=0=1,
114.250=crd0019.jpg=1.000=0=0=1,
114.375=crd0020.jpg=1.000=0=0=1,
114.500=crd0021.jpg=1.000=0=0=1,
114.625=crd0022.jpg=1.000=0=0=1,
114.750=crd0023.jpg=1.000=0=0=1,
114.875=crd0024.jpg=1.000=0=0=1,
115.000=crd0025.jpg=1.000=0=0=1,
115.125=crd0026.jpg=1.000=0=0=1,
115.250=crd0027.jpg=1.000=0=0=1,
115.375=crd0028.jpg=1.000=0=0=1,
115.500=crd0029.jpg=1.000=0=0=1,
115.625=crd0030.jpg=1.000=0=0=1,
115.750=crd0031.jpg=1.000=0=0=1,
115.875=crd0032.jpg=1.000=0=0=1,
116.000=crd0033.jpg=1.000=0=0=1,
116.125=crd0034.jpg=1.000=0=0=1,
116.250=crd0035.jpg=1.000=0=0=1,
116.375=crd0036.jpg=1.000=0=0=1,
116.500=crd0037.jpg=1.000=0=0=1,
116.625=crd0038.jpg=1.000=0=0=1,
116.750=crd0039.jpg=1.000=0=0=1,
116.875=crd0040.jpg=1.000=0=0=1,
117.000=crd0041.jpg=1.000=0=0=1,
117.125=crd0042.jpg=1.000=0=0=1,
117.250=crd0043.jpg=1.000=0=0=1,
117.375=crd0044.jpg=1.000=0=0=1,
117.500=crd0045.jpg=1.000=0=0=1,
117.625=crd0046.jpg=1.000=0=0=1,
117.750=crd0047.jpg=1.000=0=0=1,
117.875=crd0048.jpg=1.000=0=0=1,
118.000=crd0049.jpg=1.000=0=0=1,
118.125=crd0050.jpg=1.000=0=0=1,
118.250=crd0051.jpg=1.000=0=0=1,
118.375=crd0052.jpg=1.000=0=0=1,
118.500=crd0053.jpg=1.000=0=0=1,
118.625=crd0054.jpg=1.000=0=0=1,
118.750=crd0055.jpg=1.000=0=0=1,
118.875=crd0056.jpg=1.000=0=0=1,
119.000=crd0057.jpg=1.000=0=0=1,
119.125=crd0058.jpg=1.000=0=0=1,
119.250=crd0059.jpg=1.000=0=0=1,
119.375=crd0060.jpg=1.000=0=0=1,
119.500=crd0061.jpg=1.000=0=0=1,
119.625=crd0062.jpg=1.000=0=0=1,
119.750=crd0063.jpg=1.000=0=0=1,
119.875=crd0064.jpg=1.000=0=0=1,
120.000=crd0001.jpg=1.000=0=0=1,
120.125=crd0002.jpg=1.000=0=0=1,
120.250=crd0003.jpg=1.000=0=0=1,
120.375=crd0004.jpg=1.000=0=0=1,
120.500=crd0005.jpg=1.000=0=0=1,
120.625=crd0006.jpg=1.000=0=0=1,
120.750=crd0007.jpg=1.000=0=0=1,
120.875=crd0008.jpg=1.000=0=0=1,
121.000=crd0009.jpg=1.000=0=0=1,
121.125=crd0010.jpg=1.000=0=0=1,
121.250=crd0011.jpg=1.000=0=0=1,
121.375=crd0012.jpg=1.000=0=0=1,
121.500=crd0013.jpg=1.000=0=0=1,
121.625=crd0014.jpg=1.000=0=0=1,
121.750=crd0015.jpg=1.000=0=0=1,
121.875=crd0016.jpg=1.000=0=0=1,
122.000=crd0017.jpg=1.000=0=0=1,
122.125=crd0018.jpg=1.000=0=0=1,
122.250=crd0019.jpg=1.000=0=0=1,
122.375=crd0020.jpg=1.000=0=0=1,
122.500=crd0021.jpg=1.000=0=0=1,
122.625=crd0022.jpg=1.000=0=0=1,
122.750=crd0023.jpg=1.000=0=0=1,
122.875=crd0024.jpg=1.000=0=0=1,
123.000=crd0025.jpg=1.000=0=0=1,
123.125=crd0026.jpg=1.000=0=0=1,
123.250=crd0027.jpg=1.000=0=0=1,
123.375=crd0028.jpg=1.000=0=0=1,
123.500=crd0029.jpg=1.000=0=0=1,
123.625=crd0030.jpg=1.000=0=0=1,
123.750=crd0031.jpg=1.000=0=0=1,
123.875=crd0032.jpg=1.000=0=0=1,
124.000=crd0033.jpg=1.000=0=0=1,
124.125=crd0034.jpg=1.000=0=0=1,
124.250=crd0035.jpg=1.000=0=0=1,
124.375=crd0036.jpg=1.000=0=0=1,
124.500=crd0037.jpg=1.000=0=0=1,
124.625=crd0038.jpg=1.000=0=0=1,
124.750=crd0039.jpg=1.000=0=0=1,
124.875=crd0040.jpg=1.000=0=0=1,
125.000=crd0041.jpg=1.000=0=0=1,
125.125=crd0042.jpg=1.000=0=0=1,
125.250=crd0043.jpg=1.000=0=0=1,
125.375=crd0044.jpg=1.000=0=0=1,
125.500=crd0045.jpg=1.000=0=0=1,
125.625=crd0046.jpg=1.000=0=0=1,
125.750=crd0047.jpg=1.000=0=0=1,
125.875=crd0048.jpg=1.000=0=0=1,
126.000=crd0049.jpg=1.000=0=0=1,
126.125=crd0050.jpg=1.000=0=0=1,
126.250=crd0051.jpg=1.000=0=0=1,
126.375=crd0052.jpg=1.000=0=0=1,
126.500=crd0053.jpg=1.000=0=0=1,
126.625=crd0054.jpg=1.000=0=0=1,
126.750=crd0055.jpg=1.000=0=0=1,
126.875=crd0056.jpg=1.000=0=0=1,
127.000=crd0057.jpg=1.000=0=0=1,
127.125=crd0058.jpg=1.000=0=0=1,
127.250=crd0059.jpg=1.000=0=0=1,
127.375=crd0060.jpg=1.000=0=0=1,
127.500=crd0061.jpg=1.000=0=0=1,
127.625=crd0062.jpg=1.000=0=0=1,
127.750=crd0063.jpg=1.000=0=0=1,
127.875=crd0064.jpg=1.000=0=0=1,
128.000=crd0001.jpg=1.000=0=0=1,
128.063=drum0001.jpg=1.000=0=0=1,
128.125=crd0002.jpg=1.000=0=0=1,
128.188=drum0002.jpg=1.000=0=0=1,
128.250=crd0003.jpg=1.000=0=0=1,
128.313=drum0003.jpg=1.000=0=0=1,
128.375=crd0004.jpg=1.000=0=0=1,
128.438=drum0004.jpg=1.000=0=0=1,
128.500=crd0005.jpg=1.000=0=0=1,
128.563=drum0005.jpg=1.000=0=0=1,
128.625=crd0006.jpg=1.000=0=0=1,
128.688=drum0006.jpg=1.000=0=0=1,
128.750=crd0007.jpg=1.000=0=0=1,
128.813=drum0007.jpg=1.000=0=0=1,
128.875=crd0008.jpg=1.000=0=0=1,
128.938=drum0008.jpg=1.000=0=0=1,
129.000=crd0009.jpg=1.000=0=0=1,
129.063=xxx0001.jpg=1.000=0=0=1,
129.125=crd0010.jpg=1.000=0=0=1,
129.188=xxx0002.jpg=1.000=0=0=1,
129.250=crd0011.jpg=1.000=0=0=1,
129.313=xxx0003.jpg=1.000=0=0=1,
129.375=crd0012.jpg=1.000=0=0=1,
129.438=xxx0004.jpg=1.000=0=0=1,
129.500=crd0013.jpg=1.000=0=0=1,
129.563=xxx0005.jpg=1.000=0=0=1,
129.625=crd0014.jpg=1.000=0=0=1,
129.688=xxx0006.jpg=1.000=0=0=1,
129.750=crd0015.jpg=1.000=0=0=1,
129.813=xxx0007.jpg=1.000=0=0=1,
129.875=crd0016.jpg=1.000=0=0=1,
129.938=xxx0008.jpg=1.000=0=0=1,
130.000=crd0017.jpg=1.000=0=0=1,
130.063=drum0009.jpg=1.000=0=0=1,
130.125=crd0018.jpg=1.000=0=0=1,
130.188=drum0010.jpg=1.000=0=0=1,
130.250=crd0019.jpg=1.000=0=0=1,
130.313=drum0011.jpg=1.000=0=0=1,
130.375=crd0020.jpg=1.000=0=0=1,
130.438=drum0012.jpg=1.000=0=0=1,
130.500=crd0021.jpg=1.000=0=0=1,
130.563=drum0013.jpg=1.000=0=0=1,
130.625=crd0022.jpg=1.000=0=0=1,
130.688=drum0014.jpg=1.000=0=0=1,
130.750=crd0023.jpg=1.000=0=0=1,
130.813=drum0015.jpg=1.000=0=0=1,
130.875=crd0024.jpg=1.000=0=0=1,
130.938=drum0016.jpg=1.000=0=0=1,
131.000=crd0025.jpg=1.000=0=0=1,
131.063=xxx0009.jpg=1.000=0=0=1,
131.125=crd0026.jpg=1.000=0=0=1,
131.188=xxx0010.jpg=1.000=0=0=1,
131.250=crd0027.jpg=1.000=0=0=1,
131.313=xxx0011.jpg=1.000=0=0=1,
131.375=crd0028.jpg=1.000=0=0=1,
131.438=xxx0012.jpg=1.000=0=0=1,
131.500=crd0029.jpg=1.000=0=0=1,
131.563=xxx0013.jpg=1.000=0=0=1,
131.625=crd0030.jpg=1.000=0=0=1,
131.688=xxx0014.jpg=1.000=0=0=1,
131.750=crd0031.jpg=1.000=0=0=1,
131.813=xxx0015.jpg=1.000=0=0=1,
131.875=crd0032.jpg=1.000=0=0=1,
131.938=xxx0016.jpg=1.000=0=0=1,
132.000=crd0033.jpg=1.000=0=0=1,
132.063=drum0017.jpg=1.000=0=0=1,
132.125=crd0034.jpg=1.000=0=0=1,
132.188=drum0018.jpg=1.000=0=0=1,
132.250=crd0035.jpg=1.000=0=0=1,
132.313=drum0019.jpg=1.000=0=0=1,
132.375=crd0036.jpg=1.000=0=0=1,
132.438=drum0020.jpg=1.000=0=0=1,
132.500=crd0037.jpg=1.000=0=0=1,
132.563=drum0021.jpg=1.000=0=0=1,
132.625=crd0038.jpg=1.000=0=0=1,
132.688=drum0022.jpg=1.000=0=0=1,
132.750=crd0039.jpg=1.000=0=0=1,
132.813=drum0023.jpg=1.000=0=0=1,
132.875=crd0040.jpg=1.000=0=0=1,
132.938=drum0024.jpg=1.000=0=0=1,
133.000=crd0041.jpg=1.000=0=0=1,
133.063=drum0025.jpg=1.000=0=0=1,
133.125=crd0042.jpg=1.000=0=0=1,
133.188=drum0026.jpg=1.000=0=0=1,
133.250=crd0043.jpg=1.000=0=0=1,
133.313=drum0027.jpg=1.000=0=0=1,
133.375=crd0044.jpg=1.000=0=0=1,
133.438=drum0028.jpg=1.000=0=0=1,
133.500=crd0045.jpg=1.000=0=0=1,
133.563=drum0029.jpg=1.000=0=0=1,
133.625=crd0046.jpg=1.000=0=0=1,
133.688=drum0030.jpg=1.000=0=0=1,
133.750=crd0047.jpg=1.000=0=0=1,
133.813=drum0031.jpg=1.000=0=0=1,
133.875=crd0048.jpg=1.000=0=0=1,
133.938=drum0032.jpg=1.000=0=0=1,
134.000=crd0049.jpg=1.000=0=0=1,
134.063=yyy0001.jpg=1.000=0=0=1,
134.125=crd0050.jpg=1.000=0=0=1,
134.188=yyy0002.jpg=1.000=0=0=1,
134.250=crd0051.jpg=1.000=0=0=1,
134.313=yyy0003.jpg=1.000=0=0=1,
134.375=crd0052.jpg=1.000=0=0=1,
134.438=yyy0004.jpg=1.000=0=0=1,
134.500=crd0053.jpg=1.000=0=0=1,
134.563=yyy0005.jpg=1.000=0=0=1,
134.625=crd0054.jpg=1.000=0=0=1,
134.688=yyy0006.jpg=1.000=0=0=1,
134.750=crd0055.jpg=1.000=0=0=1,
134.813=yyy0007.jpg=1.000=0=0=1,
134.875=crd0056.jpg=1.000=0=0=1,
134.938=yyy0008.jpg=1.000=0=0=1,
135.000=crd0057.jpg=1.000=0=0=1,
135.063=fryu0001.jpg=1.000=0=0=1,
135.125=crd0058.jpg=1.000=0=0=1,
135.188=fryu0002.jpg=1.000=0=0=1,
135.250=crd0059.jpg=1.000=0=0=1,
135.313=fryu0003.jpg=1.000=0=0=1,
135.375=crd0060.jpg=1.000=0=0=1,
135.438=fryu0004.jpg=1.000=0=0=1,
135.500=crd0061.jpg=1.000=0=0=1,
135.563=fryu0005.jpg=1.000=0=0=1,
135.625=crd0062.jpg=1.000=0=0=1,
135.688=fryu0006.jpg=1.000=0=0=1,
135.750=crd0063.jpg=1.000=0=0=1,
135.813=fryu0007.jpg=1.000=0=0=1,
135.875=crd0064.jpg=1.000=0=0=1,
135.938=fryu0008.jpg=1.000=0=0=1,
136.000=crd0001.jpg=1.000=0=0=1,
136.063=yyy0009.jpg=1.000=0=0=1,
136.125=crd0002.jpg=1.000=0=0=1,
136.188=yyy0010.jpg=1.000=0=0=1,
136.250=crd0003.jpg=1.000=0=0=1,
136.313=yyy0011.jpg=1.000=0=0=1,
136.375=crd0004.jpg=1.000=0=0=1,
136.438=yyy0012.jpg=1.000=0=0=1,
136.500=crd0005.jpg=1.000=0=0=1,
136.563=yyy0013.jpg=1.000=0=0=1,
136.625=crd0006.jpg=1.000=0=0=1,
136.688=yyy0014.jpg=1.000=0=0=1,
136.750=crd0007.jpg=1.000=0=0=1,
136.813=yyy0015.jpg=1.000=0=0=1,
136.875=crd0008.jpg=1.000=0=0=1,
136.938=yyy0016.jpg=1.000=0=0=1,
137.000=crd0009.jpg=1.000=0=0=1,
137.063=fryu0009.jpg=1.000=0=0=1,
137.125=crd0010.jpg=1.000=0=0=1,
137.188=fryu0010.jpg=1.000=0=0=1,
137.250=crd0011.jpg=1.000=0=0=1,
137.313=fryu0011.jpg=1.000=0=0=1,
137.375=crd0012.jpg=1.000=0=0=1,
137.438=fryu0012.jpg=1.000=0=0=1,
137.500=crd0013.jpg=1.000=0=0=1,
137.563=fryu0013.jpg=1.000=0=0=1,
137.625=crd0014.jpg=1.000=0=0=1,
137.688=fryu0014.jpg=1.000=0=0=1,
137.750=crd0015.jpg=1.000=0=0=1,
137.813=fryu0015.jpg=1.000=0=0=1,
137.875=crd0016.jpg=1.000=0=0=1,
137.938=fryu0016.jpg=1.000=0=0=1,
138.000=crd0017.jpg=1.000=0=0=1,
138.063=zzt0001.jpg=1.000=0=0=1,
138.125=crd0018.jpg=1.000=0=0=1,
138.188=zzt0002.jpg=1.000=0=0=1,
138.250=crd0019.jpg=1.000=0=0=1,
138.313=zzt0003.jpg=1.000=0=0=1,
138.375=crd0020.jpg=1.000=0=0=1,
138.438=zzt0004.jpg=1.000=0=0=1,
138.500=crd0021.jpg=1.000=0=0=1,
138.563=zzt0005.jpg=1.000=0=0=1,
138.625=crd0022.jpg=1.000=0=0=1,
138.688=zzt0006.jpg=1.000=0=0=1,
138.750=crd0023.jpg=1.000=0=0=1,
138.813=zzt0007.jpg=1.000=0=0=1,
138.875=crd0024.jpg=1.000=0=0=1,
138.938=zzt0008.jpg=1.000=0=0=1,
139.000=crd0025.jpg=1.000=0=0=1,
139.063=fryu0017.jpg=1.000=0=0=1,
139.125=crd0026.jpg=1.000=0=0=1,
139.188=fryu0018.jpg=1.000=0=0=1,
139.250=crd0027.jpg=1.000=0=0=1,
139.313=fryu0019.jpg=1.000=0=0=1,
139.375=crd0028.jpg=1.000=0=0=1,
139.438=fryu0020.jpg=1.000=0=0=1,
139.500=crd0029.jpg=1.000=0=0=1,
139.563=fryu0021.jpg=1.000=0=0=1,
139.625=crd0030.jpg=1.000=0=0=1,
139.688=fryu0022.jpg=1.000=0=0=1,
139.750=crd0031.jpg=1.000=0=0=1,
139.813=fryu0023.jpg=1.000=0=0=1,
139.875=crd0032.jpg=1.000=0=0=1,
139.938=fryu0024.jpg=1.000=0=0=1,
140.000=crd0033.jpg=1.000=0=0=1,
140.063=zzt0009.jpg=1.000=0=0=1,
140.125=crd0034.jpg=1.000=0=0=1,
140.188=zzt0010.jpg=1.000=0=0=1,
140.250=crd0035.jpg=1.000=0=0=1,
140.313=zzt0011.jpg=1.000=0=0=1,
140.375=crd0036.jpg=1.000=0=0=1,
140.438=zzt0012.jpg=1.000=0=0=1,
140.500=crd0037.jpg=1.000=0=0=1,
140.563=zzt0013.jpg=1.000=0=0=1,
140.625=crd0038.jpg=1.000=0=0=1,
140.688=zzt0014.jpg=1.000=0=0=1,
140.750=crd0039.jpg=1.000=0=0=1,
140.813=zzt0015.jpg=1.000=0=0=1,
140.875=crd0040.jpg=1.000=0=0=1,
140.938=zzt0016.jpg=1.000=0=0=1,
141.000=crd0041.jpg=1.000=0=0=1,
141.063=fryu0025.jpg=1.000=0=0=1,
141.125=crd0042.jpg=1.000=0=0=1,
141.188=fryu0026.jpg=1.000=0=0=1,
141.250=crd0043.jpg=1.000=0=0=1,
141.313=fryu0027.jpg=1.000=0=0=1,
141.375=crd0044.jpg=1.000=0=0=1,
141.438=fryu0028.jpg=1.000=0=0=1,
141.500=crd0045.jpg=1.000=0=0=1,
141.563=fryu0029.jpg=1.000=0=0=1,
141.625=crd0046.jpg=1.000=0=0=1,
141.688=fryu0030.jpg=1.000=0=0=1,
141.750=crd0047.jpg=1.000=0=0=1,
141.813=fryu0031.jpg=1.000=0=0=1,
141.875=crd0048.jpg=1.000=0=0=1,
141.938=fryu0032.jpg=1.000=0=0=1,
142.000=crd0049.jpg=1.000=0=0=1,
142.063=ria0001.jpg=1.000=0=0=1,
142.125=crd0050.jpg=1.000=0=0=1,
142.188=ria0002.jpg=1.000=0=0=1,
142.250=crd0051.jpg=1.000=0=0=1,
142.313=ria0003.jpg=1.000=0=0=1,
142.375=crd0052.jpg=1.000=0=0=1,
142.438=ria0004.jpg=1.000=0=0=1,
142.500=crd0053.jpg=1.000=0=0=1,
142.563=ria0005.jpg=1.000=0=0=1,
142.625=crd0054.jpg=1.000=0=0=1,
142.688=ria0006.jpg=1.000=0=0=1,
142.750=crd0055.jpg=1.000=0=0=1,
142.813=ria0007.jpg=1.000=0=0=1,
142.875=crd0056.jpg=1.000=0=0=1,
142.938=ria0008.jpg=1.000=0=0=1,
143.000=crd0057.jpg=1.000=0=0=1,
143.063=ria0009.jpg=1.000=0=0=1,
143.125=crd0058.jpg=1.000=0=0=1,
143.188=ria0010.jpg=1.000=0=0=1,
143.250=crd0059.jpg=1.000=0=0=1,
143.313=ria0011.jpg=1.000=0=0=1,
143.375=crd0060.jpg=1.000=0=0=1,
143.438=ria0012.jpg=1.000=0=0=1,
143.500=crd0061.jpg=1.000=0=0=1,
143.563=ria0013.jpg=1.000=0=0=1,
143.625=crd0062.jpg=1.000=0=0=1,
143.688=ria0014.jpg=1.000=0=0=1,
143.750=crd0063.jpg=1.000=0=0=1,
143.813=ria0015.jpg=1.000=0=0=1,
143.875=crd0064.jpg=1.000=0=0=1,
143.938=ria0016.jpg=1.000=0=0=1,
144.000=fryu0001.jpg=1.000=0=0=1,
144.063=fryu0002.jpg=1.000=0=0=1,
144.125=fryu0003.jpg=1.000=0=0=1,
144.188=fryu0004.jpg=1.000=0=0=1,
144.250=fryu0005.jpg=1.000=0=0=1,
144.313=fryu0006.jpg=1.000=0=0=1,
144.375=fryu0007.jpg=1.000=0=0=1,
144.438=fryu0008.jpg=1.000=0=0=1,
144.500=fryu0009.jpg=1.000=0=0=1,
144.563=fryu0010.jpg=1.000=0=0=1,
144.625=fryu0011.jpg=1.000=0=0=1,
144.688=fryu0012.jpg=1.000=0=0=1,
144.750=fryu0013.jpg=1.000=0=0=1,
144.813=fryu0014.jpg=1.000=0=0=1,
144.875=fryu0015.jpg=1.000=0=0=1,
144.938=fryu0016.jpg=1.000=0=0=1,
145.000=xxx0001.jpg=1.000=0=0=1,
145.063=xxx0002.jpg=1.000=0=0=1,
145.125=xxx0003.jpg=1.000=0=0=1,
145.188=xxx0004.jpg=1.000=0=0=1,
145.250=xxx0005.jpg=1.000=0=0=1,
145.313=xxx0006.jpg=1.000=0=0=1,
145.375=xxx0007.jpg=1.000=0=0=1,
145.438=xxx0008.jpg=1.000=0=0=1,
145.500=xxx0009.jpg=1.000=0=0=1,
145.563=xxx0010.jpg=1.000=0=0=1,
145.625=xxx0011.jpg=1.000=0=0=1,
145.688=xxx0012.jpg=1.000=0=0=1,
145.750=xxx0013.jpg=1.000=0=0=1,
145.813=xxx0014.jpg=1.000=0=0=1,
145.875=xxx0015.jpg=1.000=0=0=1,
145.938=xxx0016.jpg=1.000=0=0=1,
146.000=fryu0017.jpg=1.000=0=0=1,
146.063=fryu0018.jpg=1.000=0=0=1,
146.125=fryu0019.jpg=1.000=0=0=1,
146.188=fryu0020.jpg=1.000=0=0=1,
146.250=fryu0021.jpg=1.000=0=0=1,
146.313=fryu0022.jpg=1.000=0=0=1,
146.375=fryu0023.jpg=1.000=0=0=1,
146.438=fryu0024.jpg=1.000=0=0=1,
146.500=fryu0025.jpg=1.000=0=0=1,
146.563=fryu0026.jpg=1.000=0=0=1,
146.625=fryu0027.jpg=1.000=0=0=1,
146.688=fryu0028.jpg=1.000=0=0=1,
146.750=fryu0029.jpg=1.000=0=0=1,
146.813=fryu0030.jpg=1.000=0=0=1,
146.875=fryu0031.jpg=1.000=0=0=1,
146.938=fryu0032.jpg=1.000=0=0=1,
147.000=zzt0001.jpg=1.000=0=0=1,
147.063=zzt0002.jpg=1.000=0=0=1,
147.125=zzt0003.jpg=1.000=0=0=1,
147.188=zzt0004.jpg=1.000=0=0=1,
147.250=zzt0005.jpg=1.000=0=0=1,
147.313=zzt0006.jpg=1.000=0=0=1,
147.375=zzt0007.jpg=1.000=0=0=1,
147.438=zzt0008.jpg=1.000=0=0=1,
147.500=zzt0009.jpg=1.000=0=0=1,
147.563=zzt0010.jpg=1.000=0=0=1,
147.625=zzt0011.jpg=1.000=0=0=1,
147.688=zzt0012.jpg=1.000=0=0=1,
147.750=zzt0013.jpg=1.000=0=0=1,
147.813=zzt0014.jpg=1.000=0=0=1,
147.875=zzt0015.jpg=1.000=0=0=1,
147.938=zzt0016.jpg=1.000=0=0=1,
148.000=drum0001.jpg=1.000=0=0=1,
148.063=drum0002.jpg=1.000=0=0=1,
148.125=drum0003.jpg=1.000=0=0=1,
148.188=drum0004.jpg=1.000=0=0=1,
148.250=drum0005.jpg=1.000=0=0=1,
148.313=drum0006.jpg=1.000=0=0=1,
148.375=drum0007.jpg=1.000=0=0=1,
148.438=drum0008.jpg=1.000=0=0=1,
148.500=drum0009.jpg=1.000=0=0=1,
148.563=drum0010.jpg=1.000=0=0=1,
148.625=drum0011.jpg=1.000=0=0=1,
148.688=drum0012.jpg=1.000=0=0=1,
148.750=drum0013.jpg=1.000=0=0=1,
148.813=drum0014.jpg=1.000=0=0=1,
148.875=drum0015.jpg=1.000=0=0=1,
148.938=drum0016.jpg=1.000=0=0=1,
149.000=yyy0001.jpg=1.000=0=0=1,
149.063=yyy0002.jpg=1.000=0=0=1,
149.125=yyy0003.jpg=1.000=0=0=1,
149.188=yyy0004.jpg=1.000=0=0=1,
149.250=yyy0005.jpg=1.000=0=0=1,
149.313=yyy0006.jpg=1.000=0=0=1,
149.375=yyy0007.jpg=1.000=0=0=1,
149.438=yyy0008.jpg=1.000=0=0=1,
149.500=yyy0009.jpg=1.000=0=0=1,
149.563=yyy0010.jpg=1.000=0=0=1,
149.625=yyy0011.jpg=1.000=0=0=1,
149.688=yyy0012.jpg=1.000=0=0=1,
149.750=yyy0013.jpg=1.000=0=0=1,
149.813=yyy0014.jpg=1.000=0=0=1,
149.875=yyy0015.jpg=1.000=0=0=1,
149.938=yyy0016.jpg=1.000=0=0=1,
150.000=drum0017.jpg=1.000=0=0=1,
150.063=drum0018.jpg=1.000=0=0=1,
150.125=drum0019.jpg=1.000=0=0=1,
150.188=drum0020.jpg=1.000=0=0=1,
150.250=drum0021.jpg=1.000=0=0=1,
150.313=drum0022.jpg=1.000=0=0=1,
150.375=drum0023.jpg=1.000=0=0=1,
150.438=drum0024.jpg=1.000=0=0=1,
150.500=drum0025.jpg=1.000=0=0=1,
150.563=drum0026.jpg=1.000=0=0=1,
150.625=drum0027.jpg=1.000=0=0=1,
150.688=drum0028.jpg=1.000=0=0=1,
150.750=drum0029.jpg=1.000=0=0=1,
150.813=drum0030.jpg=1.000=0=0=1,
150.875=drum0031.jpg=1.000=0=0=1,
150.938=drum0032.jpg=1.000=0=0=1,
151.000=zzz0001.jpg=1.000=0=0=1,
151.063=zzz0002.jpg=1.000=0=0=1,
151.125=zzz0003.jpg=1.000=0=0=1,
151.188=zzz0004.jpg=1.000=0=0=1,
151.250=zzz0005.jpg=1.000=0=0=1,
151.313=zzz0006.jpg=1.000=0=0=1,
151.375=zzz0007.jpg=1.000=0=0=1,
151.438=zzz0008.jpg=1.000=0=0=1,
151.500=zzz0009.jpg=1.000=0=0=1,
151.563=zzz0010.jpg=1.000=0=0=1,
151.625=zzz0011.jpg=1.000=0=0=1,
151.688=zzz0012.jpg=1.000=0=0=1,
151.750=zzz0013.jpg=1.000=0=0=1,
151.813=zzz0014.jpg=1.000=0=0=1,
151.875=zzz0015.jpg=1.000=0=0=1,
151.938=zzz0016.jpg=1.000=0=0=1,
152.000=fryu0001.jpg=1.000=0=0=1,
152.063=fryu0002.jpg=1.000=0=0=1,
152.125=fryu0003.jpg=1.000=0=0=1,
152.188=fryu0004.jpg=1.000=0=0=1,
152.250=fryu0005.jpg=1.000=0=0=1,
152.313=fryu0006.jpg=1.000=0=0=1,
152.375=fryu0007.jpg=1.000=0=0=1,
152.438=fryu0008.jpg=1.000=0=0=1,
152.500=fryu0009.jpg=1.000=0=0=1,
152.563=fryu0010.jpg=1.000=0=0=1,
152.625=fryu0011.jpg=1.000=0=0=1,
152.688=fryu0012.jpg=1.000=0=0=1,
152.750=fryu0013.jpg=1.000=0=0=1,
152.813=fryu0014.jpg=1.000=0=0=1,
152.875=fryu0015.jpg=1.000=0=0=1,
152.938=fryu0016.jpg=1.000=0=0=1,
153.000=xxx0001.jpg=1.000=0=0=1,
153.063=xxx0002.jpg=1.000=0=0=1,
153.125=xxx0003.jpg=1.000=0=0=1,
153.188=xxx0004.jpg=1.000=0=0=1,
153.250=xxx0005.jpg=1.000=0=0=1,
153.313=xxx0006.jpg=1.000=0=0=1,
153.375=xxx0007.jpg=1.000=0=0=1,
153.438=xxx0008.jpg=1.000=0=0=1,
153.500=xxx0009.jpg=1.000=0=0=1,
153.563=xxx0010.jpg=1.000=0=0=1,
153.625=xxx0011.jpg=1.000=0=0=1,
153.688=xxx0012.jpg=1.000=0=0=1,
153.750=xxx0013.jpg=1.000=0=0=1,
153.813=xxx0014.jpg=1.000=0=0=1,
153.875=xxx0015.jpg=1.000=0=0=1,
153.938=xxx0016.jpg=1.000=0=0=1,
154.000=fryu0017.jpg=1.000=0=0=1,
154.063=fryu0018.jpg=1.000=0=0=1,
154.125=fryu0019.jpg=1.000=0=0=1,
154.188=fryu0020.jpg=1.000=0=0=1,
154.250=fryu0021.jpg=1.000=0=0=1,
154.313=fryu0022.jpg=1.000=0=0=1,
154.375=fryu0023.jpg=1.000=0=0=1,
154.438=fryu0024.jpg=1.000=0=0=1,
154.500=fryu0025.jpg=1.000=0=0=1,
154.563=fryu0026.jpg=1.000=0=0=1,
154.625=fryu0027.jpg=1.000=0=0=1,
154.688=fryu0028.jpg=1.000=0=0=1,
154.750=fryu0029.jpg=1.000=0=0=1,
154.813=fryu0030.jpg=1.000=0=0=1,
154.875=fryu0031.jpg=1.000=0=0=1,
154.938=fryu0032.jpg=1.000=0=0=1,
155.000=zzz0001.jpg=1.000=0=0=1,
155.063=zzz0002.jpg=1.000=0=0=1,
155.125=zzz0003.jpg=1.000=0=0=1,
155.188=zzz0004.jpg=1.000=0=0=1,
155.250=zzz0005.jpg=1.000=0=0=1,
155.313=zzz0006.jpg=1.000=0=0=1,
155.375=zzz0007.jpg=1.000=0=0=1,
155.438=zzz0008.jpg=1.000=0=0=1,
155.500=zzz0009.jpg=1.000=0=0=1,
155.563=zzz0010.jpg=1.000=0=0=1,
155.625=zzz0011.jpg=1.000=0=0=1,
155.688=zzz0012.jpg=1.000=0=0=1,
155.750=zzz0013.jpg=1.000=0=0=1,
155.813=zzz0014.jpg=1.000=0=0=1,
155.875=zzz0015.jpg=1.000=0=0=1,
155.938=zzz0016.jpg=1.000=0=0=1,
156.000=drum0001.jpg=1.000=0=0=1,
156.063=drum0002.jpg=1.000=0=0=1,
156.125=drum0003.jpg=1.000=0=0=1,
156.188=drum0004.jpg=1.000=0=0=1,
156.250=drum0005.jpg=1.000=0=0=1,
156.313=drum0006.jpg=1.000=0=0=1,
156.375=drum0007.jpg=1.000=0=0=1,
156.438=drum0008.jpg=1.000=0=0=1,
156.500=drum0009.jpg=1.000=0=0=1,
156.563=drum0010.jpg=1.000=0=0=1,
156.625=drum0011.jpg=1.000=0=0=1,
156.688=drum0012.jpg=1.000=0=0=1,
156.750=drum0013.jpg=1.000=0=0=1,
156.813=drum0014.jpg=1.000=0=0=1,
156.875=drum0015.jpg=1.000=0=0=1,
156.938=drum0016.jpg=1.000=0=0=1,
157.000=zzt0001.jpg=1.000=0=0=1,
157.063=zzt0002.jpg=1.000=0=0=1,
157.125=zzt0003.jpg=1.000=0=0=1,
157.188=zzt0004.jpg=1.000=0=0=1,
157.250=zzt0005.jpg=1.000=0=0=1,
157.313=zzt0006.jpg=1.000=0=0=1,
157.375=zzt0007.jpg=1.000=0=0=1,
157.438=zzt0008.jpg=1.000=0=0=1,
157.500=zzt0009.jpg=1.000=0=0=1,
157.563=zzt0010.jpg=1.000=0=0=1,
157.625=zzt0011.jpg=1.000=0=0=1,
157.688=zzt0012.jpg=1.000=0=0=1,
157.750=zzt0013.jpg=1.000=0=0=1,
157.813=zzt0014.jpg=1.000=0=0=1,
157.875=zzt0015.jpg=1.000=0=0=1,
157.938=zzt0016.jpg=1.000=0=0=1,
158.000=drum0017.jpg=1.000=0=0=1,
158.063=drum0018.jpg=1.000=0=0=1,
158.125=drum0019.jpg=1.000=0=0=1,
158.188=drum0020.jpg=1.000=0=0=1,
158.250=drum0021.jpg=1.000=0=0=1,
158.313=drum0022.jpg=1.000=0=0=1,
158.375=drum0023.jpg=1.000=0=0=1,
158.438=drum0024.jpg=1.000=0=0=1,
158.500=drum0025.jpg=1.000=0=0=1,
158.563=drum0026.jpg=1.000=0=0=1,
158.625=drum0027.jpg=1.000=0=0=1,
158.688=drum0028.jpg=1.000=0=0=1,
158.750=drum0029.jpg=1.000=0=0=1,
158.813=drum0030.jpg=1.000=0=0=1,
158.875=drum0031.jpg=1.000=0=0=1,
158.938=drum0032.jpg=1.000=0=0=1,
159.000=yyy0001.jpg=1.000=0=0=1,
159.063=yyy0002.jpg=1.000=0=0=1,
159.125=yyy0003.jpg=1.000=0=0=1,
159.188=yyy0004.jpg=1.000=0=0=1,
159.250=yyy0005.jpg=1.000=0=0=1,
159.313=yyy0006.jpg=1.000=0=0=1,
159.375=yyy0007.jpg=1.000=0=0=1,
159.438=yyy0008.jpg=1.000=0=0=1,
159.500=yyy0009.jpg=1.000=0=0=1,
159.563=yyy0010.jpg=1.000=0=0=1,
159.625=yyy0011.jpg=1.000=0=0=1,
159.688=yyy0012.jpg=1.000=0=0=1,
159.750=yyy0013.jpg=1.000=0=0=1,
159.813=yyy0014.jpg=1.000=0=0=1,
159.875=yyy0015.jpg=1.000=0=0=1,
159.938=yyy0016.jpg=1.000=0=0=1,
160.000=fryu0001.jpg=1.000=0=0=1,
160.063=fryu0002.jpg=1.000=0=0=1,
160.125=fryu0003.jpg=1.000=0=0=1,
160.188=fryu0004.jpg=1.000=0=0=1,
160.250=fryu0005.jpg=1.000=0=0=1,
160.313=fryu0006.jpg=1.000=0=0=1,
160.375=fryu0007.jpg=1.000=0=0=1,
160.438=fryu0008.jpg=1.000=0=0=1,
160.500=fryu0009.jpg=1.000=0=0=1,
160.563=fryu0010.jpg=1.000=0=0=1,
160.625=fryu0011.jpg=1.000=0=0=1,
160.688=fryu0012.jpg=1.000=0=0=1,
160.750=fryu0013.jpg=1.000=0=0=1,
160.813=fryu0014.jpg=1.000=0=0=1,
160.875=fryu0015.jpg=1.000=0=0=1,
160.938=fryu0016.jpg=1.000=0=0=1,
161.000=xxx0001.jpg=1.000=0=0=1,
161.063=xxx0002.jpg=1.000=0=0=1,
161.125=xxx0003.jpg=1.000=0=0=1,
161.188=xxx0004.jpg=1.000=0=0=1,
161.250=xxx0005.jpg=1.000=0=0=1,
161.313=xxx0006.jpg=1.000=0=0=1,
161.375=xxx0007.jpg=1.000=0=0=1,
161.438=xxx0008.jpg=1.000=0=0=1,
161.500=xxx0009.jpg=1.000=0=0=1,
161.563=xxx0010.jpg=1.000=0=0=1,
161.625=xxx0011.jpg=1.000=0=0=1,
161.688=xxx0012.jpg=1.000=0=0=1,
161.750=xxx0013.jpg=1.000=0=0=1,
161.813=xxx0014.jpg=1.000=0=0=1,
161.875=xxx0015.jpg=1.000=0=0=1,
161.938=xxx0016.jpg=1.000=0=0=1,
162.000=fryu0017.jpg=1.000=0=0=1,
162.063=fryu0018.jpg=1.000=0=0=1,
162.125=fryu0019.jpg=1.000=0=0=1,
162.188=fryu0020.jpg=1.000=0=0=1,
162.250=fryu0021.jpg=1.000=0=0=1,
162.313=fryu0022.jpg=1.000=0=0=1,
162.375=fryu0023.jpg=1.000=0=0=1,
162.438=fryu0024.jpg=1.000=0=0=1,
162.500=fryu0025.jpg=1.000=0=0=1,
162.563=fryu0026.jpg=1.000=0=0=1,
162.625=fryu0027.jpg=1.000=0=0=1,
162.688=fryu0028.jpg=1.000=0=0=1,
162.750=fryu0029.jpg=1.000=0=0=1,
162.813=fryu0030.jpg=1.000=0=0=1,
162.875=fryu0031.jpg=1.000=0=0=1,
162.938=fryu0032.jpg=1.000=0=0=1,
163.000=yyy0001.jpg=1.000=0=0=1,
163.063=yyy0002.jpg=1.000=0=0=1,
163.125=yyy0003.jpg=1.000=0=0=1,
163.188=yyy0004.jpg=1.000=0=0=1,
163.250=yyy0005.jpg=1.000=0=0=1,
163.313=yyy0006.jpg=1.000=0=0=1,
163.375=yyy0007.jpg=1.000=0=0=1,
163.438=yyy0008.jpg=1.000=0=0=1,
163.500=yyy0009.jpg=1.000=0=0=1,
163.563=yyy0010.jpg=1.000=0=0=1,
163.625=yyy0011.jpg=1.000=0=0=1,
163.688=yyy0012.jpg=1.000=0=0=1,
163.750=yyy0013.jpg=1.000=0=0=1,
163.813=yyy0014.jpg=1.000=0=0=1,
163.875=yyy0015.jpg=1.000=0=0=1,
163.938=yyy0016.jpg=1.000=0=0=1,
164.000=drum0001.jpg=1.000=0=0=1,
164.063=drum0002.jpg=1.000=0=0=1,
164.125=drum0003.jpg=1.000=0=0=1,
164.188=drum0004.jpg=1.000=0=0=1,
164.250=drum0005.jpg=1.000=0=0=1,
164.313=drum0006.jpg=1.000=0=0=1,
164.375=drum0007.jpg=1.000=0=0=1,
164.438=drum0008.jpg=1.000=0=0=1,
164.500=drum0009.jpg=1.000=0=0=1,
164.563=drum0010.jpg=1.000=0=0=1,
164.625=drum0011.jpg=1.000=0=0=1,
164.688=drum0012.jpg=1.000=0=0=1,
164.750=drum0013.jpg=1.000=0=0=1,
164.813=drum0014.jpg=1.000=0=0=1,
164.875=drum0015.jpg=1.000=0=0=1,
164.938=drum0016.jpg=1.000=0=0=1,
165.000=zzz0001.jpg=1.000=0=0=1,
165.063=zzz0002.jpg=1.000=0=0=1,
165.125=zzz0003.jpg=1.000=0=0=1,
165.188=zzz0004.jpg=1.000=0=0=1,
165.250=zzz0005.jpg=1.000=0=0=1,
165.313=zzz0006.jpg=1.000=0=0=1,
165.375=zzz0007.jpg=1.000=0=0=1,
165.438=zzz0008.jpg=1.000=0=0=1,
165.500=zzz0009.jpg=1.000=0=0=1,
165.563=zzz0010.jpg=1.000=0=0=1,
165.625=zzz0011.jpg=1.000=0=0=1,
165.688=zzz0012.jpg=1.000=0=0=1,
165.750=zzz0013.jpg=1.000=0=0=1,
165.813=zzz0014.jpg=1.000=0=0=1,
165.875=zzz0015.jpg=1.000=0=0=1,
165.938=zzz0016.jpg=1.000=0=0=1,
166.000=drum0017.jpg=1.000=0=0=1,
166.063=drum0018.jpg=1.000=0=0=1,
166.125=drum0019.jpg=1.000=0=0=1,
166.188=drum0020.jpg=1.000=0=0=1,
166.250=drum0021.jpg=1.000=0=0=1,
166.313=drum0022.jpg=1.000=0=0=1,
166.375=drum0023.jpg=1.000=0=0=1,
166.438=drum0024.jpg=1.000=0=0=1,
166.500=drum0025.jpg=1.000=0=0=1,
166.563=drum0026.jpg=1.000=0=0=1,
166.625=drum0027.jpg=1.000=0=0=1,
166.688=drum0028.jpg=1.000=0=0=1,
166.750=drum0029.jpg=1.000=0=0=1,
166.813=drum0030.jpg=1.000=0=0=1,
166.875=drum0031.jpg=1.000=0=0=1,
166.938=drum0032.jpg=1.000=0=0=1,
167.000=zzt0001.jpg=1.000=0=0=1,
167.063=zzt0002.jpg=1.000=0=0=1,
167.125=zzt0003.jpg=1.000=0=0=1,
167.188=zzt0004.jpg=1.000=0=0=1,
167.250=zzt0005.jpg=1.000=0=0=1,
167.313=zzt0006.jpg=1.000=0=0=1,
167.375=zzt0007.jpg=1.000=0=0=1,
167.438=zzt0008.jpg=1.000=0=0=1,
167.500=zzt0009.jpg=1.000=0=0=1,
167.563=zzt0010.jpg=1.000=0=0=1,
167.625=zzt0011.jpg=1.000=0=0=1,
167.688=zzt0012.jpg=1.000=0=0=1,
167.750=zzt0013.jpg=1.000=0=0=1,
167.813=zzt0014.jpg=1.000=0=0=1,
167.875=zzt0015.jpg=1.000=0=0=1,
167.938=zzt0016.jpg=1.000=0=0=1,
168.000=fryu0001.jpg=1.000=0=0=1,
168.063=fryu0002.jpg=1.000=0=0=1,
168.125=fryu0003.jpg=1.000=0=0=1,
168.188=fryu0004.jpg=1.000=0=0=1,
168.250=fryu0005.jpg=1.000=0=0=1,
168.313=fryu0006.jpg=1.000=0=0=1,
168.375=fryu0007.jpg=1.000=0=0=1,
168.438=fryu0008.jpg=1.000=0=0=1,
168.500=fryu0009.jpg=1.000=0=0=1,
168.563=fryu0010.jpg=1.000=0=0=1,
168.625=fryu0011.jpg=1.000=0=0=1,
168.688=fryu0012.jpg=1.000=0=0=1,
168.750=fryu0013.jpg=1.000=0=0=1,
168.813=fryu0014.jpg=1.000=0=0=1,
168.875=fryu0015.jpg=1.000=0=0=1,
168.938=fryu0016.jpg=1.000=0=0=1,
169.000=xxx0001.jpg=1.000=0=0=1,
169.063=xxx0002.jpg=1.000=0=0=1,
169.125=xxx0003.jpg=1.000=0=0=1,
169.188=xxx0004.jpg=1.000=0=0=1,
169.250=xxx0005.jpg=1.000=0=0=1,
169.313=xxx0006.jpg=1.000=0=0=1,
169.375=xxx0007.jpg=1.000=0=0=1,
169.438=xxx0008.jpg=1.000=0=0=1,
169.500=xxx0009.jpg=1.000=0=0=1,
169.563=xxx0010.jpg=1.000=0=0=1,
169.625=xxx0011.jpg=1.000=0=0=1,
169.688=xxx0012.jpg=1.000=0=0=1,
169.750=xxx0013.jpg=1.000=0=0=1,
169.813=xxx0014.jpg=1.000=0=0=1,
169.875=xxx0015.jpg=1.000=0=0=1,
169.938=xxx0016.jpg=1.000=0=0=1,
170.000=fryu0017.jpg=1.000=0=0=1,
170.063=fryu0018.jpg=1.000=0=0=1,
170.125=fryu0019.jpg=1.000=0=0=1,
170.188=fryu0020.jpg=1.000=0=0=1,
170.250=fryu0021.jpg=1.000=0=0=1,
170.313=fryu0022.jpg=1.000=0=0=1,
170.375=fryu0023.jpg=1.000=0=0=1,
170.438=fryu0024.jpg=1.000=0=0=1,
170.500=fryu0025.jpg=1.000=0=0=1,
170.563=fryu0026.jpg=1.000=0=0=1,
170.625=fryu0027.jpg=1.000=0=0=1,
170.688=fryu0028.jpg=1.000=0=0=1,
170.750=fryu0029.jpg=1.000=0=0=1,
170.813=fryu0030.jpg=1.000=0=0=1,
170.875=fryu0031.jpg=1.000=0=0=1,
170.938=fryu0032.jpg=1.000=0=0=1,
171.000=zzt0001.jpg=1.000=0=0=1,
171.063=zzt0002.jpg=1.000=0=0=1,
171.125=zzt0003.jpg=1.000=0=0=1,
171.188=zzt0004.jpg=1.000=0=0=1,
171.250=zzt0005.jpg=1.000=0=0=1,
171.313=zzt0006.jpg=1.000=0=0=1,
171.375=zzt0007.jpg=1.000=0=0=1,
171.438=zzt0008.jpg=1.000=0=0=1,
171.500=zzt0009.jpg=1.000=0=0=1,
171.563=zzt0010.jpg=1.000=0=0=1,
171.625=zzt0011.jpg=1.000=0=0=1,
171.688=zzt0012.jpg=1.000=0=0=1,
171.750=zzt0013.jpg=1.000=0=0=1,
171.813=zzt0014.jpg=1.000=0=0=1,
171.875=zzt0015.jpg=1.000=0=0=1,
171.938=zzt0016.jpg=1.000=0=0=1,
172.000=drum0001.jpg=1.000=0=0=1,
172.063=drum0002.jpg=1.000=0=0=1,
172.125=drum0003.jpg=1.000=0=0=1,
172.188=drum0004.jpg=1.000=0=0=1,
172.250=drum0005.jpg=1.000=0=0=1,
172.313=drum0006.jpg=1.000=0=0=1,
172.375=drum0007.jpg=1.000=0=0=1,
172.438=drum0008.jpg=1.000=0=0=1,
172.500=drum0009.jpg=1.000=0=0=1,
172.563=drum0010.jpg=1.000=0=0=1,
172.625=drum0011.jpg=1.000=0=0=1,
172.688=drum0012.jpg=1.000=0=0=1,
172.750=drum0013.jpg=1.000=0=0=1,
172.813=drum0014.jpg=1.000=0=0=1,
172.875=drum0015.jpg=1.000=0=0=1,
172.938=drum0016.jpg=1.000=0=0=1,
173.000=zzz0001.jpg=1.000=0=0=1,
173.063=zzz0002.jpg=1.000=0=0=1,
173.125=zzz0003.jpg=1.000=0=0=1,
173.188=zzz0004.jpg=1.000=0=0=1,
173.250=zzz0005.jpg=1.000=0=0=1,
173.313=zzz0006.jpg=1.000=0=0=1,
173.375=zzz0007.jpg=1.000=0=0=1,
173.438=zzz0008.jpg=1.000=0=0=1,
173.500=zzz0009.jpg=1.000=0=0=1,
173.563=zzz0010.jpg=1.000=0=0=1,
173.625=zzz0011.jpg=1.000=0=0=1,
173.688=zzz0012.jpg=1.000=0=0=1,
173.750=zzz0013.jpg=1.000=0=0=1,
173.813=zzz0014.jpg=1.000=0=0=1,
173.875=zzz0015.jpg=1.000=0=0=1,
173.938=zzz0016.jpg=1.000=0=0=1,
174.000=drum0017.jpg=1.000=0=0=1,
174.063=drum0018.jpg=1.000=0=0=1,
174.125=drum0019.jpg=1.000=0=0=1,
174.188=drum0020.jpg=1.000=0=0=1,
174.250=drum0021.jpg=1.000=0=0=1,
174.313=drum0022.jpg=1.000=0=0=1,
174.375=drum0023.jpg=1.000=0=0=1,
174.438=drum0024.jpg=1.000=0=0=1,
174.500=drum0025.jpg=1.000=0=0=1,
174.563=drum0026.jpg=1.000=0=0=1,
174.625=drum0027.jpg=1.000=0=0=1,
174.688=drum0028.jpg=1.000=0=0=1,
174.750=drum0029.jpg=1.000=0=0=1,
174.813=drum0030.jpg=1.000=0=0=1,
174.875=drum0031.jpg=1.000=0=0=1,
174.938=drum0032.jpg=1.000=0=0=1,
175.000=yyy0001.jpg=1.000=0=0=1,
175.063=yyy0002.jpg=1.000=0=0=1,
175.125=yyy0003.jpg=1.000=0=0=1,
175.188=yyy0004.jpg=1.000=0=0=1,
175.250=yyy0005.jpg=1.000=0=0=1,
175.313=yyy0006.jpg=1.000=0=0=1,
175.375=yyy0007.jpg=1.000=0=0=1,
175.438=yyy0008.jpg=1.000=0=0=1,
175.500=yyy0009.jpg=1.000=0=0=1,
175.563=yyy0010.jpg=1.000=0=0=1,
175.625=yyy0011.jpg=1.000=0=0=1,
175.688=yyy0012.jpg=1.000=0=0=1,
175.750=yyy0013.jpg=1.000=0=0=1,
175.813=yyy0014.jpg=1.000=0=0=1,
175.875=yyy0015.jpg=1.000=0=0=1,
175.938=yyy0016.jpg=1.000=0=0=1,
176.000=crd0001.jpg=1.000=0=0=1,
176.125=crd0002.jpg=1.000=0=0=1,
176.250=crd0003.jpg=1.000=0=0=1,
176.375=crd0004.jpg=1.000=0=0=1,
176.500=crd0005.jpg=1.000=0=0=1,
176.625=crd0006.jpg=1.000=0=0=1,
176.750=crd0007.jpg=1.000=0=0=1,
176.875=crd0008.jpg=1.000=0=0=1,
177.000=crd0009.jpg=1.000=0=0=1,
177.125=crd0010.jpg=1.000=0=0=1,
177.250=crd0011.jpg=1.000=0=0=1,
177.375=crd0012.jpg=1.000=0=0=1,
177.500=crd0013.jpg=1.000=0=0=1,
177.625=crd0014.jpg=1.000=0=0=1,
177.750=crd0015.jpg=1.000=0=0=1,
177.875=crd0016.jpg=1.000=0=0=1,
178.000=crd0017.jpg=1.000=0=0=1,
178.125=crd0018.jpg=1.000=0=0=1,
178.250=crd0019.jpg=1.000=0=0=1,
178.375=crd0020.jpg=1.000=0=0=1,
178.500=crd0021.jpg=1.000=0=0=1,
178.625=crd0022.jpg=1.000=0=0=1,
178.750=crd0023.jpg=1.000=0=0=1,
178.875=crd0024.jpg=1.000=0=0=1,
179.000=crd0025.jpg=1.000=0=0=1,
179.125=crd0026.jpg=1.000=0=0=1,
179.250=crd0027.jpg=1.000=0=0=1,
179.375=crd0028.jpg=1.000=0=0=1,
179.500=crd0029.jpg=1.000=0=0=1,
179.625=crd0030.jpg=1.000=0=0=1,
179.750=crd0031.jpg=1.000=0=0=1,
179.875=crd0032.jpg=1.000=0=0=1,
180.000=crd0033.jpg=1.000=0=0=1,
180.125=crd0034.jpg=1.000=0=0=1,
180.250=crd0035.jpg=1.000=0=0=1,
180.375=crd0036.jpg=1.000=0=0=1,
180.500=crd0037.jpg=1.000=0=0=1,
180.625=crd0038.jpg=1.000=0=0=1,
180.750=crd0039.jpg=1.000=0=0=1,
180.875=crd0040.jpg=1.000=0=0=1,
181.000=crd0041.jpg=1.000=0=0=1,
181.125=crd0042.jpg=1.000=0=0=1,
181.250=crd0043.jpg=1.000=0=0=1,
181.375=crd0044.jpg=1.000=0=0=1,
181.500=crd0045.jpg=1.000=0=0=1,
181.625=crd0046.jpg=1.000=0=0=1,
181.750=crd0047.jpg=1.000=0=0=1,
181.875=crd0048.jpg=1.000=0=0=1,
182.000=crd0049.jpg=1.000=0=0=1,
182.125=crd0050.jpg=1.000=0=0=1,
182.250=crd0051.jpg=1.000=0=0=1,
182.375=crd0052.jpg=1.000=0=0=1,
182.500=crd0053.jpg=1.000=0=0=1,
182.625=crd0054.jpg=1.000=0=0=1,
182.750=crd0055.jpg=1.000=0=0=1,
182.875=crd0056.jpg=1.000=0=0=1,
183.000=crd0057.jpg=1.000=0=0=1,
183.125=crd0058.jpg=1.000=0=0=1,
183.250=crd0059.jpg=1.000=0=0=1,
183.375=crd0060.jpg=1.000=0=0=1,
183.500=crd0061.jpg=1.000=0=0=1,
183.625=crd0062.jpg=1.000=0=0=1,
183.750=crd0063.jpg=1.000=0=0=1,
183.875=crd0064.jpg=1.000=0=0=1,
184.000=crd0001.jpg=1.000=0=0=1,
184.125=crd0002.jpg=1.000=0=0=1,
184.250=crd0003.jpg=1.000=0=0=1,
184.375=crd0004.jpg=1.000=0=0=1,
184.500=crd0005.jpg=1.000=0=0=1,
184.625=crd0006.jpg=1.000=0=0=1,
184.750=crd0007.jpg=1.000=0=0=1,
184.875=crd0008.jpg=1.000=0=0=1,
185.000=crd0009.jpg=1.000=0=0=1,
185.125=crd0010.jpg=1.000=0=0=1,
185.250=crd0011.jpg=1.000=0=0=1,
185.375=crd0012.jpg=1.000=0=0=1,
185.500=crd0013.jpg=1.000=0=0=1,
185.625=crd0014.jpg=1.000=0=0=1,
185.750=crd0015.jpg=1.000=0=0=1,
185.875=crd0016.jpg=1.000=0=0=1,
186.000=crd0017.jpg=1.000=0=0=1,
186.125=crd0018.jpg=1.000=0=0=1,
186.250=crd0019.jpg=1.000=0=0=1,
186.375=crd0020.jpg=1.000=0=0=1,
186.500=crd0021.jpg=1.000=0=0=1,
186.625=crd0022.jpg=1.000=0=0=1,
186.750=crd0023.jpg=1.000=0=0=1,
186.875=crd0024.jpg=1.000=0=0=1,
187.000=crd0025.jpg=1.000=0=0=1,
187.125=crd0026.jpg=1.000=0=0=1,
187.250=crd0027.jpg=1.000=0=0=1,
187.375=crd0028.jpg=1.000=0=0=1,
187.500=crd0029.jpg=1.000=0=0=1,
187.625=crd0030.jpg=1.000=0=0=1,
187.750=crd0031.jpg=1.000=0=0=1,
187.875=crd0032.jpg=1.000=0=0=1,
188.000=crd0033.jpg=1.000=0=0=1,
188.125=crd0034.jpg=1.000=0=0=1,
188.250=crd0035.jpg=1.000=0=0=1,
188.375=crd0036.jpg=1.000=0=0=1,
188.500=crd0037.jpg=1.000=0=0=1,
188.625=crd0038.jpg=1.000=0=0=1,
188.750=crd0039.jpg=1.000=0=0=1,
188.875=crd0040.jpg=1.000=0=0=1,
189.000=crd0041.jpg=1.000=0=0=1,
189.125=crd0042.jpg=1.000=0=0=1,
189.250=crd0043.jpg=1.000=0=0=1,
189.375=crd0044.jpg=1.000=0=0=1,
189.500=crd0045.jpg=1.000=0=0=1,
189.625=crd0046.jpg=1.000=0=0=1,
189.750=crd0047.jpg=1.000=0=0=1,
189.875=crd0048.jpg=1.000=0=0=1,
190.000=crd0049.jpg=1.000=0=0=1,
190.125=crd0050.jpg=1.000=0=0=1,
190.250=crd0051.jpg=1.000=0=0=1,
190.375=crd0052.jpg=1.000=0=0=1,
190.500=crd0053.jpg=1.000=0=0=1,
190.625=crd0054.jpg=1.000=0=0=1,
190.750=crd0055.jpg=1.000=0=0=1,
190.875=crd0056.jpg=1.000=0=0=1,
191.000=crd0057.jpg=1.000=0=0=1,
191.125=crd0058.jpg=1.000=0=0=1,
191.250=crd0059.jpg=1.000=0=0=1,
191.375=crd0060.jpg=1.000=0=0=1,
191.500=crd0061.jpg=1.000=0=0=1,
191.625=crd0062.jpg=1.000=0=0=1,
191.750=crd0063.jpg=1.000=0=0=1,
191.875=crd0064.jpg=1.000=0=0=1,
192.000=crd0001.jpg=1.000=0=0=1,
192.125=crd0002.jpg=1.000=0=0=1,
192.250=crd0003.jpg=1.000=0=0=1,
192.375=crd0004.jpg=1.000=0=0=1,
192.500=crd0005.jpg=1.000=0=0=1,
192.625=crd0006.jpg=1.000=0=0=1,
192.750=crd0007.jpg=1.000=0=0=1,
192.875=crd0008.jpg=1.000=0=0=1,
193.000=crd0009.jpg=1.000=0=0=1,
193.125=crd0010.jpg=1.000=0=0=1,
193.250=crd0011.jpg=1.000=0=0=1,
193.375=crd0012.jpg=1.000=0=0=1,
193.500=crd0013.jpg=1.000=0=0=1,
193.625=crd0014.jpg=1.000=0=0=1,
193.750=crd0015.jpg=1.000=0=0=1,
193.875=crd0016.jpg=1.000=0=0=1,
194.000=crd0017.jpg=1.000=0=0=1,
194.125=crd0018.jpg=1.000=0=0=1,
194.250=crd0019.jpg=1.000=0=0=1,
194.375=crd0020.jpg=1.000=0=0=1,
194.500=crd0021.jpg=1.000=0=0=1,
194.625=crd0022.jpg=1.000=0=0=1,
194.750=crd0023.jpg=1.000=0=0=1,
194.875=crd0024.jpg=1.000=0=0=1,
195.000=crd0025.jpg=1.000=0=0=1,
195.125=crd0026.jpg=1.000=0=0=1,
195.250=crd0027.jpg=1.000=0=0=1,
195.375=crd0028.jpg=1.000=0=0=1,
195.500=crd0029.jpg=1.000=0=0=1,
195.625=crd0030.jpg=1.000=0=0=1,
195.750=crd0031.jpg=1.000=0=0=1,
195.875=crd0032.jpg=1.000=0=0=1,
196.000=crd0033.jpg=1.000=0=0=1,
196.125=crd0034.jpg=1.000=0=0=1,
196.250=crd0035.jpg=1.000=0=0=1,
196.375=crd0036.jpg=1.000=0=0=1,
196.500=crd0037.jpg=1.000=0=0=1,
196.625=crd0038.jpg=1.000=0=0=1,
196.750=crd0039.jpg=1.000=0=0=1,
196.875=crd0040.jpg=1.000=0=0=1,
197.000=crd0041.jpg=1.000=0=0=1,
197.125=crd0042.jpg=1.000=0=0=1,
197.250=crd0043.jpg=1.000=0=0=1,
197.375=crd0044.jpg=1.000=0=0=1,
197.500=crd0045.jpg=1.000=0=0=1,
197.625=crd0046.jpg=1.000=0=0=1,
197.750=crd0047.jpg=1.000=0=0=1,
197.875=crd0048.jpg=1.000=0=0=1,
198.000=crd0049.jpg=1.000=0=0=1,
198.125=crd0050.jpg=1.000=0=0=1,
198.250=crd0051.jpg=1.000=0=0=1,
198.375=crd0052.jpg=1.000=0=0=1,
198.500=crd0053.jpg=1.000=0=0=1,
198.625=crd0054.jpg=1.000=0=0=1,
198.750=crd0055.jpg=1.000=0=0=1,
198.875=crd0056.jpg=1.000=0=0=1,
199.000=crd0057.jpg=1.000=0=0=1,
199.125=crd0058.jpg=1.000=0=0=1,
199.250=crd0059.jpg=1.000=0=0=1,
199.375=crd0060.jpg=1.000=0=0=1,
199.500=crd0061.jpg=1.000=0=0=1,
199.625=crd0062.jpg=1.000=0=0=1,
199.750=crd0063.jpg=1.000=0=0=1,
199.875=crd0064.jpg=1.000=0=0=1,
200.000=crd0001.jpg=1.000=0=0=1,
200.125=crd0002.jpg=1.000=0=0=1,
200.250=crd0003.jpg=1.000=0=0=1,
200.375=crd0004.jpg=1.000=0=0=1,
200.500=crd0005.jpg=1.000=0=0=1,
200.625=crd0006.jpg=1.000=0=0=1,
200.750=crd0007.jpg=1.000=0=0=1,
200.875=crd0008.jpg=1.000=0=0=1,
201.000=crd0009.jpg=1.000=0=0=1,
201.125=crd0010.jpg=1.000=0=0=1,
201.250=crd0011.jpg=1.000=0=0=1,
201.375=crd0012.jpg=1.000=0=0=1,
201.500=crd0013.jpg=1.000=0=0=1,
201.625=crd0014.jpg=1.000=0=0=1,
201.750=crd0015.jpg=1.000=0=0=1,
201.875=crd0016.jpg=1.000=0=0=1,
202.000=crd0017.jpg=1.000=0=0=1,
202.125=crd0018.jpg=1.000=0=0=1,
202.250=crd0019.jpg=1.000=0=0=1,
202.375=crd0020.jpg=1.000=0=0=1,
202.500=crd0021.jpg=1.000=0=0=1,
202.625=crd0022.jpg=1.000=0=0=1,
202.750=crd0023.jpg=1.000=0=0=1,
202.875=crd0024.jpg=1.000=0=0=1,
203.000=crd0025.jpg=1.000=0=0=1,
203.125=crd0026.jpg=1.000=0=0=1,
203.250=crd0027.jpg=1.000=0=0=1,
203.375=crd0028.jpg=1.000=0=0=1,
203.500=crd0029.jpg=1.000=0=0=1,
203.625=crd0030.jpg=1.000=0=0=1,
203.750=crd0031.jpg=1.000=0=0=1,
203.875=crd0032.jpg=1.000=0=0=1,
204.000=crd0033.jpg=1.000=0=0=1,
204.125=crd0034.jpg=1.000=0=0=1,
204.250=crd0035.jpg=1.000=0=0=1,
204.375=crd0036.jpg=1.000=0=0=1,
204.500=crd0037.jpg=1.000=0=0=1,
204.625=crd0038.jpg=1.000=0=0=1,
204.750=crd0039.jpg=1.000=0=0=1,
204.875=crd0040.jpg=1.000=0=0=1,
205.000=crd0041.jpg=1.000=0=0=1,
205.125=crd0042.jpg=1.000=0=0=1,
205.250=crd0043.jpg=1.000=0=0=1,
205.375=crd0044.jpg=1.000=0=0=1,
205.500=crd0045.jpg=1.000=0=0=1,
205.625=crd0046.jpg=1.000=0=0=1,
205.750=crd0047.jpg=1.000=0=0=1,
205.875=crd0048.jpg=1.000=0=0=1,
206.000=crd0049.jpg=1.000=0=0=1,
206.125=crd0050.jpg=1.000=0=0=1,
206.250=crd0051.jpg=1.000=0=0=1,
206.375=crd0052.jpg=1.000=0=0=1,
206.500=crd0053.jpg=1.000=0=0=1,
206.625=crd0054.jpg=1.000=0=0=1,
206.750=crd0055.jpg=1.000=0=0=1,
206.875=crd0056.jpg=1.000=0=0=1,
207.000=crd0057.jpg=1.000=0=0=1,
207.125=crd0058.jpg=1.000=0=0=1,
207.250=crd0059.jpg=1.000=0=0=1,
207.375=crd0060.jpg=1.000=0=0=1,
207.500=crd0061.jpg=1.000=0=0=1,
207.625=crd0062.jpg=1.000=0=0=1,
207.750=crd0063.jpg=1.000=0=0=1,
207.875=crd0064.jpg=1.000=0=0=1,
208.000=xxx0001.jpg=1.000=0=0=1,
208.125=xxx0002.jpg=1.000=0=0=1,
208.250=xxx0003.jpg=1.000=0=0=1,
208.375=xxx0004.jpg=1.000=0=0=1,
208.500=xxx0005.jpg=1.000=0=0=1,
208.625=xxx0006.jpg=1.000=0=0=1,
208.750=xxx0007.jpg=1.000=0=0=1,
208.875=xxx0008.jpg=1.000=0=0=1,
209.000=xxx0009.jpg=1.000=0=0=1,
209.125=xxx0010.jpg=1.000=0=0=1,
209.250=xxx0011.jpg=1.000=0=0=1,
209.375=xxx0012.jpg=1.000=0=0=1,
209.500=xxx0013.jpg=1.000=0=0=1,
209.625=xxx0014.jpg=1.000=0=0=1,
209.750=xxx0015.jpg=1.000=0=0=1,
209.875=xxx0016.jpg=1.000=0=0=1,
210.000=drum0001.jpg=1.000=0=0=1,
210.125=drum0002.jpg=1.000=0=0=1,
210.250=drum0003.jpg=1.000=0=0=1,
210.375=drum0004.jpg=1.000=0=0=1,
210.500=drum0005.jpg=1.000=0=0=1,
210.625=drum0006.jpg=1.000=0=0=1,
210.750=drum0007.jpg=1.000=0=0=1,
210.875=drum0008.jpg=1.000=0=0=1,
211.000=drum0009.jpg=1.000=0=0=1,
211.125=drum0010.jpg=1.000=0=0=1,
211.250=drum0011.jpg=1.000=0=0=1,
211.375=drum0012.jpg=1.000=0=0=1,
211.500=drum0013.jpg=1.000=0=0=1,
211.625=drum0014.jpg=1.000=0=0=1,
211.750=drum0015.jpg=1.000=0=0=1,
211.875=drum0016.jpg=1.000=0=0=1,
212.000=yyy0001.jpg=1.000=0=0=1,
212.125=yyy0002.jpg=1.000=0=0=1,
212.250=yyy0003.jpg=1.000=0=0=1,
212.375=yyy0004.jpg=1.000=0=0=1,
212.500=yyy0005.jpg=1.000=0=0=1,
212.625=yyy0006.jpg=1.000=0=0=1,
212.750=yyy0007.jpg=1.000=0=0=1,
212.875=yyy0008.jpg=1.000=0=0=1,
213.000=yyy0009.jpg=1.000=0=0=1,
213.125=yyy0010.jpg=1.000=0=0=1,
213.250=yyy0011.jpg=1.000=0=0=1,
213.375=yyy0012.jpg=1.000=0=0=1,
213.500=yyy0013.jpg=1.000=0=0=1,
213.625=yyy0014.jpg=1.000=0=0=1,
213.750=yyy0015.jpg=1.000=0=0=1,
213.875=yyy0016.jpg=1.000=0=0=1,
214.000=drum0017.jpg=1.000=0=0=1,
214.125=drum0018.jpg=1.000=0=0=1,
214.250=drum0019.jpg=1.000=0=0=1,
214.375=drum0020.jpg=1.000=0=0=1,
214.500=drum0021.jpg=1.000=0=0=1,
214.625=drum0022.jpg=1.000=0=0=1,
214.750=drum0023.jpg=1.000=0=0=1,
214.875=drum0024.jpg=1.000=0=0=1,
215.000=drum0025.jpg=1.000=0=0=1,
215.125=drum0026.jpg=1.000=0=0=1,
215.250=drum0027.jpg=1.000=0=0=1,
215.375=drum0028.jpg=1.000=0=0=1,
215.500=drum0029.jpg=1.000=0=0=1,
215.625=drum0030.jpg=1.000=0=0=1,
215.750=drum0031.jpg=1.000=0=0=1,
215.875=drum0032.jpg=1.000=0=0=1,
216.000=zzt0001.jpg=1.000=0=0=1,
216.125=zzt0002.jpg=1.000=0=0=1,
216.250=zzt0003.jpg=1.000=0=0=1,
216.375=zzt0004.jpg=1.000=0=0=1,
216.500=zzt0005.jpg=1.000=0=0=1,
216.625=zzt0006.jpg=1.000=0=0=1,
216.750=zzt0007.jpg=1.000=0=0=1,
216.875=zzt0008.jpg=1.000=0=0=1,
217.000=zzt0009.jpg=1.000=0=0=1,
217.125=zzt0010.jpg=1.000=0=0=1,
217.250=zzt0011.jpg=1.000=0=0=1,
217.375=zzt0012.jpg=1.000=0=0=1,
217.500=zzt0013.jpg=1.000=0=0=1,
217.625=zzt0014.jpg=1.000=0=0=1,
217.750=zzt0015.jpg=1.000=0=0=1,
217.875=zzt0016.jpg=1.000=0=0=1,
218.000=drum0001.jpg=1.000=0=0=1,
218.125=drum0002.jpg=1.000=0=0=1,
218.250=drum0003.jpg=1.000=0=0=1,
218.375=drum0004.jpg=1.000=0=0=1,
218.500=drum0005.jpg=1.000=0=0=1,
218.625=drum0006.jpg=1.000=0=0=1,
218.750=drum0007.jpg=1.000=0=0=1,
218.875=drum0008.jpg=1.000=0=0=1,
219.000=drum0009.jpg=1.000=0=0=1,
219.125=drum0010.jpg=1.000=0=0=1,
219.250=drum0011.jpg=1.000=0=0=1,
219.375=drum0012.jpg=1.000=0=0=1,
219.500=drum0013.jpg=1.000=0=0=1,
219.625=drum0014.jpg=1.000=0=0=1,
219.750=drum0015.jpg=1.000=0=0=1,
219.875=drum0016.jpg=1.000=0=0=1,
220.000=zzz0001.jpg=1.000=0=0=1,
220.125=zzz0002.jpg=1.000=0=0=1,
220.250=zzz0003.jpg=1.000=0=0=1,
220.375=zzz0004.jpg=1.000=0=0=1,
220.500=zzz0005.jpg=1.000=0=0=1,
220.625=zzz0006.jpg=1.000=0=0=1,
220.750=zzz0007.jpg=1.000=0=0=1,
220.875=zzz0008.jpg=1.000=0=0=1,
221.000=zzz0009.jpg=1.000=0=0=1,
221.125=zzz0010.jpg=1.000=0=0=1,
221.250=zzz0011.jpg=1.000=0=0=1,
221.375=zzz0012.jpg=1.000=0=0=1,
221.500=zzz0013.jpg=1.000=0=0=1,
221.625=zzz0014.jpg=1.000=0=0=1,
221.750=zzz0015.jpg=1.000=0=0=1,
221.875=zzz0016.jpg=1.000=0=0=1,
222.000=drum0017.jpg=1.000=0=0=1,
222.125=drum0018.jpg=1.000=0=0=1,
222.250=drum0019.jpg=1.000=0=0=1,
222.375=drum0020.jpg=1.000=0=0=1,
222.500=drum0021.jpg=1.000=0=0=1,
222.625=drum0022.jpg=1.000=0=0=1,
222.750=drum0023.jpg=1.000=0=0=1,
222.875=drum0024.jpg=1.000=0=0=1,
223.000=drum0025.jpg=1.000=0=0=1,
223.125=drum0026.jpg=1.000=0=0=1,
223.250=drum0027.jpg=1.000=0=0=1,
223.375=drum0028.jpg=1.000=0=0=1,
223.500=drum0029.jpg=1.000=0=0=1,
223.625=drum0030.jpg=1.000=0=0=1,
223.750=drum0031.jpg=1.000=0=0=1,
223.875=drum0032.jpg=1.000=0=0=1,
224.000=xxx0001.jpg=1.000=0=0=1,
224.125=xxx0002.jpg=1.000=0=0=1,
224.250=xxx0003.jpg=1.000=0=0=1,
224.375=xxx0004.jpg=1.000=0=0=1,
224.500=xxx0005.jpg=1.000=0=0=1,
224.625=xxx0006.jpg=1.000=0=0=1,
224.750=xxx0007.jpg=1.000=0=0=1,
224.875=xxx0008.jpg=1.000=0=0=1,
225.000=xxx0009.jpg=1.000=0=0=1,
225.125=xxx0010.jpg=1.000=0=0=1,
225.250=xxx0011.jpg=1.000=0=0=1,
225.375=xxx0012.jpg=1.000=0=0=1,
225.500=xxx0013.jpg=1.000=0=0=1,
225.625=xxx0014.jpg=1.000=0=0=1,
225.750=xxx0015.jpg=1.000=0=0=1,
225.875=xxx0016.jpg=1.000=0=0=1,
226.000=fryu0001.jpg=1.000=0=0=1,
226.125=fryu0002.jpg=1.000=0=0=1,
226.250=fryu0003.jpg=1.000=0=0=1,
226.375=fryu0004.jpg=1.000=0=0=1,
226.500=fryu0005.jpg=1.000=0=0=1,
226.625=fryu0006.jpg=1.000=0=0=1,
226.750=fryu0007.jpg=1.000=0=0=1,
226.875=fryu0008.jpg=1.000=0=0=1,
227.000=fryu0009.jpg=1.000=0=0=1,
227.125=fryu0010.jpg=1.000=0=0=1,
227.250=fryu0011.jpg=1.000=0=0=1,
227.375=fryu0012.jpg=1.000=0=0=1,
227.500=fryu0013.jpg=1.000=0=0=1,
227.625=fryu0014.jpg=1.000=0=0=1,
227.750=fryu0015.jpg=1.000=0=0=1,
227.875=fryu0016.jpg=1.000=0=0=1,
228.000=yyy0001.jpg=1.000=0=0=1,
228.125=yyy0002.jpg=1.000=0=0=1,
228.250=yyy0003.jpg=1.000=0=0=1,
228.375=yyy0004.jpg=1.000=0=0=1,
228.500=yyy0005.jpg=1.000=0=0=1,
228.625=yyy0006.jpg=1.000=0=0=1,
228.750=yyy0007.jpg=1.000=0=0=1,
228.875=yyy0008.jpg=1.000=0=0=1,
229.000=yyy0009.jpg=1.000=0=0=1,
229.125=yyy0010.jpg=1.000=0=0=1,
229.250=yyy0011.jpg=1.000=0=0=1,
229.375=yyy0012.jpg=1.000=0=0=1,
229.500=yyy0013.jpg=1.000=0=0=1,
229.625=yyy0014.jpg=1.000=0=0=1,
229.750=yyy0015.jpg=1.000=0=0=1,
229.875=yyy0016.jpg=1.000=0=0=1,
230.000=fryu0017.jpg=1.000=0=0=1,
230.125=fryu0018.jpg=1.000=0=0=1,
230.250=fryu0019.jpg=1.000=0=0=1,
230.375=fryu0020.jpg=1.000=0=0=1,
230.500=fryu0021.jpg=1.000=0=0=1,
230.625=fryu0022.jpg=1.000=0=0=1,
230.750=fryu0023.jpg=1.000=0=0=1,
230.875=fryu0024.jpg=1.000=0=0=1,
231.000=fryu0025.jpg=1.000=0=0=1,
231.125=fryu0026.jpg=1.000=0=0=1,
231.250=fryu0027.jpg=1.000=0=0=1,
231.375=fryu0028.jpg=1.000=0=0=1,
231.500=fryu0029.jpg=1.000=0=0=1,
231.625=fryu0030.jpg=1.000=0=0=1,
231.750=fryu0031.jpg=1.000=0=0=1,
231.875=fryu0032.jpg=1.000=0=0=1,
232.000=zzt0001.jpg=1.000=0=0=1,
232.125=zzt0002.jpg=1.000=0=0=1,
232.250=zzt0003.jpg=1.000=0=0=1,
232.375=zzt0004.jpg=1.000=0=0=1,
232.500=zzt0005.jpg=1.000=0=0=1,
232.625=zzt0006.jpg=1.000=0=0=1,
232.750=zzt0007.jpg=1.000=0=0=1,
232.875=zzt0008.jpg=1.000=0=0=1,
233.000=zzt0009.jpg=1.000=0=0=1,
233.125=zzt0010.jpg=1.000=0=0=1,
233.250=zzt0011.jpg=1.000=0=0=1,
233.375=zzt0012.jpg=1.000=0=0=1,
233.500=zzt0013.jpg=1.000=0=0=1,
233.625=zzt0014.jpg=1.000=0=0=1,
233.750=zzt0015.jpg=1.000=0=0=1,
233.875=zzt0016.jpg=1.000=0=0=1,
234.000=fryu0001.jpg=1.000=0=0=1,
234.125=fryu0002.jpg=1.000=0=0=1,
234.250=fryu0003.jpg=1.000=0=0=1,
234.375=fryu0004.jpg=1.000=0=0=1,
234.500=fryu0005.jpg=1.000=0=0=1,
234.625=fryu0006.jpg=1.000=0=0=1,
234.750=fryu0007.jpg=1.000=0=0=1,
234.875=fryu0008.jpg=1.000=0=0=1,
235.000=fryu0009.jpg=1.000=0=0=1,
235.125=fryu0010.jpg=1.000=0=0=1,
235.250=fryu0011.jpg=1.000=0=0=1,
235.375=fryu0012.jpg=1.000=0=0=1,
235.500=fryu0013.jpg=1.000=0=0=1,
235.625=fryu0014.jpg=1.000=0=0=1,
235.750=fryu0015.jpg=1.000=0=0=1,
235.875=fryu0016.jpg=1.000=0=0=1,
236.000=zzz0001.jpg=1.000=0=0=1,
236.125=zzz0002.jpg=1.000=0=0=1,
236.250=zzz0003.jpg=1.000=0=0=1,
236.375=zzz0004.jpg=1.000=0=0=1,
236.500=zzz0005.jpg=1.000=0=0=1,
236.625=zzz0006.jpg=1.000=0=0=1,
236.750=zzz0007.jpg=1.000=0=0=1,
236.875=zzz0008.jpg=1.000=0=0=1,
237.000=zzz0009.jpg=1.000=0=0=1,
237.125=zzz0010.jpg=1.000=0=0=1,
237.250=zzz0011.jpg=1.000=0=0=1,
237.375=zzz0012.jpg=1.000=0=0=1,
237.500=zzz0013.jpg=1.000=0=0=1,
237.625=zzz0014.jpg=1.000=0=0=1,
237.750=zzz0015.jpg=1.000=0=0=1,
237.875=zzz0016.jpg=1.000=0=0=1,
238.000=fryu0017.jpg=1.000=0=0=1,
238.125=fryu0018.jpg=1.000=0=0=1,
238.250=fryu0019.jpg=1.000=0=0=1,
238.375=fryu0020.jpg=1.000=0=0=1,
238.500=fryu0021.jpg=1.000=0=0=1,
238.625=fryu0022.jpg=1.000=0=0=1,
238.750=fryu0023.jpg=1.000=0=0=1,
238.875=fryu0024.jpg=1.000=0=0=1,
239.000=fryu0025.jpg=1.000=0=0=1,
239.125=fryu0026.jpg=1.000=0=0=1,
239.250=fryu0027.jpg=1.000=0=0=1,
239.375=fryu0028.jpg=1.000=0=0=1,
239.500=fryu0029.jpg=1.000=0=0=1,
239.625=fryu0030.jpg=1.000=0=0=1,
239.750=fryu0031.jpg=1.000=0=0=1,
239.875=fryu0032.jpg=1.000=0=0=1,
240.000=xxx0001.jpg=1.000=0=0=1,
240.063=xxx0002.jpg=1.000=0=0=1,
240.125=xxx0003.jpg=1.000=0=0=1,
240.188=xxx0004.jpg=1.000=0=0=1,
240.250=xxx0005.jpg=1.000=0=0=1,
240.313=xxx0006.jpg=1.000=0=0=1,
240.375=xxx0007.jpg=1.000=0=0=1,
240.438=xxx0008.jpg=1.000=0=0=1,
240.500=xxx0009.jpg=1.000=0=0=1,
240.563=xxx0010.jpg=1.000=0=0=1,
240.625=xxx0011.jpg=1.000=0=0=1,
240.688=xxx0012.jpg=1.000=0=0=1,
240.750=xxx0013.jpg=1.000=0=0=1,
240.813=xxx0014.jpg=1.000=0=0=1,
240.875=xxx0015.jpg=1.000=0=0=1,
240.938=xxx0016.jpg=1.000=0=0=1,
241.000=drum0001.jpg=1.000=0=0=1,
241.063=drum0002.jpg=1.000=0=0=1,
241.125=drum0003.jpg=1.000=0=0=1,
241.188=drum0004.jpg=1.000=0=0=1,
241.250=drum0005.jpg=1.000=0=0=1,
241.313=drum0006.jpg=1.000=0=0=1,
241.375=drum0007.jpg=1.000=0=0=1,
241.438=drum0008.jpg=1.000=0=0=1,
241.500=drum0009.jpg=1.000=0=0=1,
241.563=drum0010.jpg=1.000=0=0=1,
241.625=drum0011.jpg=1.000=0=0=1,
241.688=drum0012.jpg=1.000=0=0=1,
241.750=drum0013.jpg=1.000=0=0=1,
241.813=drum0014.jpg=1.000=0=0=1,
241.875=drum0015.jpg=1.000=0=0=1,
241.938=drum0016.jpg=1.000=0=0=1,
242.000=yyy0001.jpg=1.000=0=0=1,
242.063=yyy0002.jpg=1.000=0=0=1,
242.125=yyy0003.jpg=1.000=0=0=1,
242.188=yyy0004.jpg=1.000=0=0=1,
242.250=yyy0005.jpg=1.000=0=0=1,
242.313=yyy0006.jpg=1.000=0=0=1,
242.375=yyy0007.jpg=1.000=0=0=1,
242.438=yyy0008.jpg=1.000=0=0=1,
242.500=yyy0009.jpg=1.000=0=0=1,
242.563=yyy0010.jpg=1.000=0=0=1,
242.625=yyy0011.jpg=1.000=0=0=1,
242.688=yyy0012.jpg=1.000=0=0=1,
242.750=yyy0013.jpg=1.000=0=0=1,
242.813=yyy0014.jpg=1.000=0=0=1,
242.875=yyy0015.jpg=1.000=0=0=1,
242.938=yyy0016.jpg=1.000=0=0=1,
243.000=drum0017.jpg=1.000=0=0=1,
243.063=drum0018.jpg=1.000=0=0=1,
243.125=drum0019.jpg=1.000=0=0=1,
243.188=drum0020.jpg=1.000=0=0=1,
243.250=drum0021.jpg=1.000=0=0=1,
243.313=drum0022.jpg=1.000=0=0=1,
243.375=drum0023.jpg=1.000=0=0=1,
243.438=drum0024.jpg=1.000=0=0=1,
243.500=drum0025.jpg=1.000=0=0=1,
243.563=drum0026.jpg=1.000=0=0=1,
243.625=drum0027.jpg=1.000=0=0=1,
243.688=drum0028.jpg=1.000=0=0=1,
243.750=drum0029.jpg=1.000=0=0=1,
243.813=drum0030.jpg=1.000=0=0=1,
243.875=drum0031.jpg=1.000=0=0=1,
243.938=drum0032.jpg=1.000=0=0=1,
244.000=zzt0001.jpg=1.000=0=0=1,
244.063=zzt0002.jpg=1.000=0=0=1,
244.125=zzt0003.jpg=1.000=0=0=1,
244.188=zzt0004.jpg=1.000=0=0=1,
244.250=zzt0005.jpg=1.000=0=0=1,
244.313=zzt0006.jpg=1.000=0=0=1,
244.375=zzt0007.jpg=1.000=0=0=1,
244.438=zzt0008.jpg=1.000=0=0=1,
244.500=zzt0009.jpg=1.000=0=0=1,
244.563=zzt0010.jpg=1.000=0=0=1,
244.625=zzt0011.jpg=1.000=0=0=1,
244.688=zzt0012.jpg=1.000=0=0=1,
244.750=zzt0013.jpg=1.000=0=0=1,
244.813=zzt0014.jpg=1.000=0=0=1,
244.875=zzt0015.jpg=1.000=0=0=1,
244.938=zzt0016.jpg=1.000=0=0=1,
245.000=fryu0001.jpg=1.000=0=0=1,
245.063=fryu0002.jpg=1.000=0=0=1,
245.125=fryu0003.jpg=1.000=0=0=1,
245.188=fryu0004.jpg=1.000=0=0=1,
245.250=fryu0005.jpg=1.000=0=0=1,
245.313=fryu0006.jpg=1.000=0=0=1,
245.375=fryu0007.jpg=1.000=0=0=1,
245.438=fryu0008.jpg=1.000=0=0=1,
245.500=fryu0009.jpg=1.000=0=0=1,
245.563=fryu0010.jpg=1.000=0=0=1,
245.625=fryu0011.jpg=1.000=0=0=1,
245.688=fryu0012.jpg=1.000=0=0=1,
245.750=fryu0013.jpg=1.000=0=0=1,
245.813=fryu0014.jpg=1.000=0=0=1,
245.875=fryu0015.jpg=1.000=0=0=1,
245.938=fryu0016.jpg=1.000=0=0=1,
246.000=zzz0001.jpg=1.000=0=0=1,
246.063=zzz0002.jpg=1.000=0=0=1,
246.125=zzz0003.jpg=1.000=0=0=1,
246.188=zzz0004.jpg=1.000=0=0=1,
246.250=zzz0005.jpg=1.000=0=0=1,
246.313=zzz0006.jpg=1.000=0=0=1,
246.375=zzz0007.jpg=1.000=0=0=1,
246.438=zzz0008.jpg=1.000=0=0=1,
246.500=zzz0009.jpg=1.000=0=0=1,
246.563=zzz0010.jpg=1.000=0=0=1,
246.625=zzz0011.jpg=1.000=0=0=1,
246.688=zzz0012.jpg=1.000=0=0=1,
246.750=zzz0013.jpg=1.000=0=0=1,
246.813=zzz0014.jpg=1.000=0=0=1,
246.875=zzz0015.jpg=1.000=0=0=1,
246.938=zzz0016.jpg=1.000=0=0=1,
247.000=fryu0017.jpg=1.000=0=0=1,
247.063=fryu0018.jpg=1.000=0=0=1,
247.125=fryu0019.jpg=1.000=0=0=1,
247.188=fryu0020.jpg=1.000=0=0=1,
247.250=fryu0021.jpg=1.000=0=0=1,
247.313=fryu0022.jpg=1.000=0=0=1,
247.375=fryu0023.jpg=1.000=0=0=1,
247.438=fryu0024.jpg=1.000=0=0=1,
247.500=fryu0025.jpg=1.000=0=0=1,
247.563=fryu0026.jpg=1.000=0=0=1,
247.625=fryu0027.jpg=1.000=0=0=1,
247.688=fryu0028.jpg=1.000=0=0=1,
247.750=fryu0029.jpg=1.000=0=0=1,
247.813=fryu0030.jpg=1.000=0=0=1,
247.875=fryu0031.jpg=1.000=0=0=1,
247.938=fryu0032.jpg=1.000=0=0=1,
248.000=zzt0001.jpg=1.000=0=0=1,
248.063=zzt0002.jpg=1.000=0=0=1,
248.125=zzt0003.jpg=1.000=0=0=1,
248.188=zzt0004.jpg=1.000=0=0=1,
248.250=zzt0005.jpg=1.000=0=0=1,
248.313=zzt0006.jpg=1.000=0=0=1,
248.375=zzt0007.jpg=1.000=0=0=1,
248.438=zzt0008.jpg=1.000=0=0=1,
248.500=zzt0009.jpg=1.000=0=0=1,
248.563=zzt0010.jpg=1.000=0=0=1,
248.625=zzt0011.jpg=1.000=0=0=1,
248.688=zzt0012.jpg=1.000=0=0=1,
248.750=zzt0013.jpg=1.000=0=0=1,
248.813=zzt0014.jpg=1.000=0=0=1,
248.875=zzt0015.jpg=1.000=0=0=1,
248.938=zzt0016.jpg=1.000=0=0=1,
249.000=drum0001.jpg=1.000=0=0=1,
249.063=drum0002.jpg=1.000=0=0=1,
249.125=drum0003.jpg=1.000=0=0=1,
249.188=drum0004.jpg=1.000=0=0=1,
249.250=drum0005.jpg=1.000=0=0=1,
249.313=drum0006.jpg=1.000=0=0=1,
249.375=drum0007.jpg=1.000=0=0=1,
249.438=drum0008.jpg=1.000=0=0=1,
249.500=drum0009.jpg=1.000=0=0=1,
249.563=drum0010.jpg=1.000=0=0=1,
249.625=drum0011.jpg=1.000=0=0=1,
249.688=drum0012.jpg=1.000=0=0=1,
249.750=drum0013.jpg=1.000=0=0=1,
249.813=drum0014.jpg=1.000=0=0=1,
249.875=drum0015.jpg=1.000=0=0=1,
249.938=drum0016.jpg=1.000=0=0=1,
250.000=yyy0001.jpg=1.000=0=0=1,
250.063=yyy0002.jpg=1.000=0=0=1,
250.125=yyy0003.jpg=1.000=0=0=1,
250.188=yyy0004.jpg=1.000=0=0=1,
250.250=yyy0005.jpg=1.000=0=0=1,
250.313=yyy0006.jpg=1.000=0=0=1,
250.375=yyy0007.jpg=1.000=0=0=1,
250.438=yyy0008.jpg=1.000=0=0=1,
250.500=yyy0009.jpg=1.000=0=0=1,
250.563=yyy0010.jpg=1.000=0=0=1,
250.625=yyy0011.jpg=1.000=0=0=1,
250.688=yyy0012.jpg=1.000=0=0=1,
250.750=yyy0013.jpg=1.000=0=0=1,
250.813=yyy0014.jpg=1.000=0=0=1,
250.875=yyy0015.jpg=1.000=0=0=1,
250.938=yyy0016.jpg=1.000=0=0=1,
251.000=drum0017.jpg=1.000=0=0=1,
251.063=drum0018.jpg=1.000=0=0=1,
251.125=drum0019.jpg=1.000=0=0=1,
251.188=drum0020.jpg=1.000=0=0=1,
251.250=drum0021.jpg=1.000=0=0=1,
251.313=drum0022.jpg=1.000=0=0=1,
251.375=drum0023.jpg=1.000=0=0=1,
251.438=drum0024.jpg=1.000=0=0=1,
251.500=drum0025.jpg=1.000=0=0=1,
251.563=drum0026.jpg=1.000=0=0=1,
251.625=drum0027.jpg=1.000=0=0=1,
251.688=drum0028.jpg=1.000=0=0=1,
251.750=drum0029.jpg=1.000=0=0=1,
251.813=drum0030.jpg=1.000=0=0=1,
251.875=drum0031.jpg=1.000=0=0=1,
251.938=drum0032.jpg=1.000=0=0=1,
252.000=xxx0001.jpg=1.000=0=0=1,
252.063=xxx0002.jpg=1.000=0=0=1,
252.125=xxx0003.jpg=1.000=0=0=1,
252.188=xxx0004.jpg=1.000=0=0=1,
252.250=xxx0005.jpg=1.000=0=0=1,
252.313=xxx0006.jpg=1.000=0=0=1,
252.375=xxx0007.jpg=1.000=0=0=1,
252.438=xxx0008.jpg=1.000=0=0=1,
252.500=xxx0009.jpg=1.000=0=0=1,
252.563=xxx0010.jpg=1.000=0=0=1,
252.625=xxx0011.jpg=1.000=0=0=1,
252.688=xxx0012.jpg=1.000=0=0=1,
252.750=xxx0013.jpg=1.000=0=0=1,
252.813=xxx0014.jpg=1.000=0=0=1,
252.875=xxx0015.jpg=1.000=0=0=1,
252.938=xxx0016.jpg=1.000=0=0=1,
253.000=fryu0001.jpg=1.000=0=0=1,
253.063=fryu0002.jpg=1.000=0=0=1,
253.125=fryu0003.jpg=1.000=0=0=1,
253.188=fryu0004.jpg=1.000=0=0=1,
253.250=fryu0005.jpg=1.000=0=0=1,
253.313=fryu0006.jpg=1.000=0=0=1,
253.375=fryu0007.jpg=1.000=0=0=1,
253.438=fryu0008.jpg=1.000=0=0=1,
253.500=fryu0009.jpg=1.000=0=0=1,
253.563=fryu0010.jpg=1.000=0=0=1,
253.625=fryu0011.jpg=1.000=0=0=1,
253.688=fryu0012.jpg=1.000=0=0=1,
253.750=fryu0013.jpg=1.000=0=0=1,
253.813=fryu0014.jpg=1.000=0=0=1,
253.875=fryu0015.jpg=1.000=0=0=1,
253.938=fryu0016.jpg=1.000=0=0=1,
254.000=zzt0001.jpg=1.000=0=0=1,
254.063=zzt0002.jpg=1.000=0=0=1,
254.125=zzt0003.jpg=1.000=0=0=1,
254.188=zzt0004.jpg=1.000=0=0=1,
254.250=zzt0005.jpg=1.000=0=0=1,
254.313=zzt0006.jpg=1.000=0=0=1,
254.375=zzt0007.jpg=1.000=0=0=1,
254.438=zzt0008.jpg=1.000=0=0=1,
254.500=zzt0009.jpg=1.000=0=0=1,
254.563=zzt0010.jpg=1.000=0=0=1,
254.625=zzt0011.jpg=1.000=0=0=1,
254.688=zzt0012.jpg=1.000=0=0=1,
254.750=zzt0013.jpg=1.000=0=0=1,
254.813=zzt0014.jpg=1.000=0=0=1,
254.875=zzt0015.jpg=1.000=0=0=1,
254.938=zzt0016.jpg=1.000=0=0=1,
255.000=fryu0017.jpg=1.000=0=0=1,
255.063=fryu0018.jpg=1.000=0=0=1,
255.125=fryu0019.jpg=1.000=0=0=1,
255.188=fryu0020.jpg=1.000=0=0=1,
255.250=fryu0021.jpg=1.000=0=0=1,
255.313=fryu0022.jpg=1.000=0=0=1,
255.375=fryu0023.jpg=1.000=0=0=1,
255.438=fryu0024.jpg=1.000=0=0=1,
255.500=fryu0025.jpg=1.000=0=0=1,
255.563=fryu0026.jpg=1.000=0=0=1,
255.625=fryu0027.jpg=1.000=0=0=1,
255.688=fryu0028.jpg=1.000=0=0=1,
255.750=fryu0029.jpg=1.000=0=0=1,
255.813=fryu0030.jpg=1.000=0=0=1,
255.875=fryu0031.jpg=1.000=0=0=1,
255.938=fryu0032.jpg=1.000=0=0=1,
256.000=yyy0001.jpg=1.000=0=0=1,
256.063=yyy0002.jpg=1.000=0=0=1,
256.125=yyy0003.jpg=1.000=0=0=1,
256.188=yyy0004.jpg=1.000=0=0=1,
256.250=yyy0005.jpg=1.000=0=0=1,
256.313=yyy0006.jpg=1.000=0=0=1,
256.375=yyy0007.jpg=1.000=0=0=1,
256.438=yyy0008.jpg=1.000=0=0=1,
256.500=yyy0009.jpg=1.000=0=0=1,
256.563=yyy0010.jpg=1.000=0=0=1,
256.625=yyy0011.jpg=1.000=0=0=1,
256.688=yyy0012.jpg=1.000=0=0=1,
256.750=yyy0013.jpg=1.000=0=0=1,
256.813=yyy0014.jpg=1.000=0=0=1,
256.875=yyy0015.jpg=1.000=0=0=1,
256.938=yyy0016.jpg=1.000=0=0=1,
257.000=drum0001.jpg=1.000=0=0=1,
257.063=drum0002.jpg=1.000=0=0=1,
257.125=drum0003.jpg=1.000=0=0=1,
257.188=drum0004.jpg=1.000=0=0=1,
257.250=drum0005.jpg=1.000=0=0=1,
257.313=drum0006.jpg=1.000=0=0=1,
257.375=drum0007.jpg=1.000=0=0=1,
257.438=drum0008.jpg=1.000=0=0=1,
257.500=drum0009.jpg=1.000=0=0=1,
257.563=drum0010.jpg=1.000=0=0=1,
257.625=drum0011.jpg=1.000=0=0=1,
257.688=drum0012.jpg=1.000=0=0=1,
257.750=drum0013.jpg=1.000=0=0=1,
257.813=drum0014.jpg=1.000=0=0=1,
257.875=drum0015.jpg=1.000=0=0=1,
257.938=drum0016.jpg=1.000=0=0=1,
258.000=zzz0001.jpg=1.000=0=0=1,
258.063=zzz0002.jpg=1.000=0=0=1,
258.125=zzz0003.jpg=1.000=0=0=1,
258.188=zzz0004.jpg=1.000=0=0=1,
258.250=zzz0005.jpg=1.000=0=0=1,
258.313=zzz0006.jpg=1.000=0=0=1,
258.375=zzz0007.jpg=1.000=0=0=1,
258.438=zzz0008.jpg=1.000=0=0=1,
258.500=zzz0009.jpg=1.000=0=0=1,
258.563=zzz0010.jpg=1.000=0=0=1,
258.625=zzz0011.jpg=1.000=0=0=1,
258.688=zzz0012.jpg=1.000=0=0=1,
258.750=zzz0013.jpg=1.000=0=0=1,
258.813=zzz0014.jpg=1.000=0=0=1,
258.875=zzz0015.jpg=1.000=0=0=1,
258.938=zzz0016.jpg=1.000=0=0=1,
259.000=drum0017.jpg=1.000=0=0=1,
259.063=drum0018.jpg=1.000=0=0=1,
259.125=drum0019.jpg=1.000=0=0=1,
259.188=drum0020.jpg=1.000=0=0=1,
259.250=drum0021.jpg=1.000=0=0=1,
259.313=drum0022.jpg=1.000=0=0=1,
259.375=drum0023.jpg=1.000=0=0=1,
259.438=drum0024.jpg=1.000=0=0=1,
259.500=drum0025.jpg=1.000=0=0=1,
259.563=drum0026.jpg=1.000=0=0=1,
259.625=drum0027.jpg=1.000=0=0=1,
259.688=drum0028.jpg=1.000=0=0=1,
259.750=drum0029.jpg=1.000=0=0=1,
259.813=drum0030.jpg=1.000=0=0=1,
259.875=drum0031.jpg=1.000=0=0=1,
259.938=drum0032.jpg=1.000=0=0=1,
260.000=xxx0001.jpg=1.000=0=0=1,
260.063=xxx0002.jpg=1.000=0=0=1,
260.125=xxx0003.jpg=1.000=0=0=1,
260.188=xxx0004.jpg=1.000=0=0=1,
260.250=xxx0005.jpg=1.000=0=0=1,
260.313=xxx0006.jpg=1.000=0=0=1,
260.375=xxx0007.jpg=1.000=0=0=1,
260.438=xxx0008.jpg=1.000=0=0=1,
260.500=xxx0009.jpg=1.000=0=0=1,
260.563=xxx0010.jpg=1.000=0=0=1,
260.625=xxx0011.jpg=1.000=0=0=1,
260.688=xxx0012.jpg=1.000=0=0=1,
260.750=xxx0013.jpg=1.000=0=0=1,
260.813=xxx0014.jpg=1.000=0=0=1,
260.875=xxx0015.jpg=1.000=0=0=1,
260.938=xxx0016.jpg=1.000=0=0=1,
261.000=fryu0001.jpg=1.000=0=0=1,
261.063=fryu0002.jpg=1.000=0=0=1,
261.125=fryu0003.jpg=1.000=0=0=1,
261.188=fryu0004.jpg=1.000=0=0=1,
261.250=fryu0005.jpg=1.000=0=0=1,
261.313=fryu0006.jpg=1.000=0=0=1,
261.375=fryu0007.jpg=1.000=0=0=1,
261.438=fryu0008.jpg=1.000=0=0=1,
261.500=fryu0009.jpg=1.000=0=0=1,
261.563=fryu0010.jpg=1.000=0=0=1,
261.625=fryu0011.jpg=1.000=0=0=1,
261.688=fryu0012.jpg=1.000=0=0=1,
261.750=fryu0013.jpg=1.000=0=0=1,
261.813=fryu0014.jpg=1.000=0=0=1,
261.875=fryu0015.jpg=1.000=0=0=1,
261.938=fryu0016.jpg=1.000=0=0=1,
262.000=zzz0001.jpg=1.000=0=0=1,
262.063=zzz0002.jpg=1.000=0=0=1,
262.125=zzz0003.jpg=1.000=0=0=1,
262.188=zzz0004.jpg=1.000=0=0=1,
262.250=zzz0005.jpg=1.000=0=0=1,
262.313=zzz0006.jpg=1.000=0=0=1,
262.375=zzz0007.jpg=1.000=0=0=1,
262.438=zzz0008.jpg=1.000=0=0=1,
262.500=zzz0009.jpg=1.000=0=0=1,
262.563=zzz0010.jpg=1.000=0=0=1,
262.625=zzz0011.jpg=1.000=0=0=1,
262.688=zzz0012.jpg=1.000=0=0=1,
262.750=zzz0013.jpg=1.000=0=0=1,
262.813=zzz0014.jpg=1.000=0=0=1,
262.875=zzz0015.jpg=1.000=0=0=1,
262.938=zzz0016.jpg=1.000=0=0=1,
263.000=fryu0017.jpg=1.000=0=0=1,
263.063=fryu0018.jpg=1.000=0=0=1,
263.125=fryu0019.jpg=1.000=0=0=1,
263.188=fryu0020.jpg=1.000=0=0=1,
263.250=fryu0021.jpg=1.000=0=0=1,
263.313=fryu0022.jpg=1.000=0=0=1,
263.375=fryu0023.jpg=1.000=0=0=1,
263.438=fryu0024.jpg=1.000=0=0=1,
263.500=fryu0025.jpg=1.000=0=0=1,
263.563=fryu0026.jpg=1.000=0=0=1,
263.625=fryu0027.jpg=1.000=0=0=1,
263.688=fryu0028.jpg=1.000=0=0=1,
263.750=fryu0029.jpg=1.000=0=0=1,
263.813=fryu0030.jpg=1.000=0=0=1,
263.875=fryu0031.jpg=1.000=0=0=1,
263.938=fryu0032.jpg=1.000=0=0=1,
264.000=yyy0001.jpg=1.000=0=0=1,
264.063=yyy0002.jpg=1.000=0=0=1,
264.125=yyy0003.jpg=1.000=0=0=1,
264.188=yyy0004.jpg=1.000=0=0=1,
264.250=yyy0005.jpg=1.000=0=0=1,
264.313=yyy0006.jpg=1.000=0=0=1,
264.375=yyy0007.jpg=1.000=0=0=1,
264.438=yyy0008.jpg=1.000=0=0=1,
264.500=yyy0009.jpg=1.000=0=0=1,
264.563=yyy0010.jpg=1.000=0=0=1,
264.625=yyy0011.jpg=1.000=0=0=1,
264.688=yyy0012.jpg=1.000=0=0=1,
264.750=yyy0013.jpg=1.000=0=0=1,
264.813=yyy0014.jpg=1.000=0=0=1,
264.875=yyy0015.jpg=1.000=0=0=1,
264.938=yyy0016.jpg=1.000=0=0=1,
265.000=drum0001.jpg=1.000=0=0=1,
265.063=drum0002.jpg=1.000=0=0=1,
265.125=drum0003.jpg=1.000=0=0=1,
265.188=drum0004.jpg=1.000=0=0=1,
265.250=drum0005.jpg=1.000=0=0=1,
265.313=drum0006.jpg=1.000=0=0=1,
265.375=drum0007.jpg=1.000=0=0=1,
265.438=drum0008.jpg=1.000=0=0=1,
265.500=drum0009.jpg=1.000=0=0=1,
265.563=drum0010.jpg=1.000=0=0=1,
265.625=drum0011.jpg=1.000=0=0=1,
265.688=drum0012.jpg=1.000=0=0=1,
265.750=drum0013.jpg=1.000=0=0=1,
265.813=drum0014.jpg=1.000=0=0=1,
265.875=drum0015.jpg=1.000=0=0=1,
265.938=drum0016.jpg=1.000=0=0=1,
266.000=zzt0001.jpg=1.000=0=0=1,
266.063=zzt0002.jpg=1.000=0=0=1,
266.125=zzt0003.jpg=1.000=0=0=1,
266.188=zzt0004.jpg=1.000=0=0=1,
266.250=zzt0005.jpg=1.000=0=0=1,
266.313=zzt0006.jpg=1.000=0=0=1,
266.375=zzt0007.jpg=1.000=0=0=1,
266.438=zzt0008.jpg=1.000=0=0=1,
266.500=zzt0009.jpg=1.000=0=0=1,
266.563=zzt0010.jpg=1.000=0=0=1,
266.625=zzt0011.jpg=1.000=0=0=1,
266.688=zzt0012.jpg=1.000=0=0=1,
266.750=zzt0013.jpg=1.000=0=0=1,
266.813=zzt0014.jpg=1.000=0=0=1,
266.875=zzt0015.jpg=1.000=0=0=1,
266.938=zzt0016.jpg=1.000=0=0=1,
267.000=drum0017.jpg=1.000=0=0=1,
267.063=drum0018.jpg=1.000=0=0=1,
267.125=drum0019.jpg=1.000=0=0=1,
267.188=drum0020.jpg=1.000=0=0=1,
267.250=drum0021.jpg=1.000=0=0=1,
267.313=drum0022.jpg=1.000=0=0=1,
267.375=drum0023.jpg=1.000=0=0=1,
267.438=drum0024.jpg=1.000=0=0=1,
267.500=drum0025.jpg=1.000=0=0=1,
267.563=drum0026.jpg=1.000=0=0=1,
267.625=drum0027.jpg=1.000=0=0=1,
267.688=drum0028.jpg=1.000=0=0=1,
267.750=drum0029.jpg=1.000=0=0=1,
267.813=drum0030.jpg=1.000=0=0=1,
267.875=drum0031.jpg=1.000=0=0=1,
267.938=drum0032.jpg=1.000=0=0=1,
268.000=xxx0001.jpg=1.000=0=0=1,
268.063=xxx0002.jpg=1.000=0=0=1,
268.125=xxx0003.jpg=1.000=0=0=1,
268.188=xxx0004.jpg=1.000=0=0=1,
268.250=xxx0005.jpg=1.000=0=0=1,
268.313=xxx0006.jpg=1.000=0=0=1,
268.375=xxx0007.jpg=1.000=0=0=1,
268.438=xxx0008.jpg=1.000=0=0=1,
268.500=xxx0009.jpg=1.000=0=0=1,
268.563=xxx0010.jpg=1.000=0=0=1,
268.625=xxx0011.jpg=1.000=0=0=1,
268.688=xxx0012.jpg=1.000=0=0=1,
268.750=xxx0013.jpg=1.000=0=0=1,
268.813=xxx0014.jpg=1.000=0=0=1,
268.875=xxx0015.jpg=1.000=0=0=1,
268.938=xxx0016.jpg=1.000=0=0=1,
269.000=drum0001.jpg=1.000=0=0=1,
269.063=drum0002.jpg=1.000=0=0=1,
269.125=drum0003.jpg=1.000=0=0=1,
269.188=drum0004.jpg=1.000=0=0=1,
269.250=drum0005.jpg=1.000=0=0=1,
269.313=drum0006.jpg=1.000=0=0=1,
269.375=drum0007.jpg=1.000=0=0=1,
269.438=drum0008.jpg=1.000=0=0=1,
269.500=drum0009.jpg=1.000=0=0=1,
269.563=drum0010.jpg=1.000=0=0=1,
269.625=drum0011.jpg=1.000=0=0=1,
269.688=drum0012.jpg=1.000=0=0=1,
269.750=drum0013.jpg=1.000=0=0=1,
269.813=drum0014.jpg=1.000=0=0=1,
269.875=drum0015.jpg=1.000=0=0=1,
269.938=drum0016.jpg=1.000=0=0=1,
270.000=yyy0001.jpg=1.000=0=0=1,
270.063=yyy0002.jpg=1.000=0=0=1,
270.125=yyy0003.jpg=1.000=0=0=1,
270.188=yyy0004.jpg=1.000=0=0=1,
270.250=yyy0005.jpg=1.000=0=0=1,
270.313=yyy0006.jpg=1.000=0=0=1,
270.375=yyy0007.jpg=1.000=0=0=1,
270.438=yyy0008.jpg=1.000=0=0=1,
270.500=yyy0009.jpg=1.000=0=0=1,
270.563=yyy0010.jpg=1.000=0=0=1,
270.625=yyy0011.jpg=1.000=0=0=1,
270.688=yyy0012.jpg=1.000=0=0=1,
270.750=yyy0013.jpg=1.000=0=0=1,
270.813=yyy0014.jpg=1.000=0=0=1,
270.875=yyy0015.jpg=1.000=0=0=1,
270.938=yyy0016.jpg=1.000=0=0=1,
271.000=drum0017.jpg=1.000=0=0=1,
271.063=drum0018.jpg=1.000=0=0=1,
271.125=drum0019.jpg=1.000=0=0=1,
271.188=drum0020.jpg=1.000=0=0=1,
271.250=drum0021.jpg=1.000=0=0=1,
271.313=drum0022.jpg=1.000=0=0=1,
271.375=drum0023.jpg=1.000=0=0=1,
271.438=drum0024.jpg=1.000=0=0=1,
271.500=drum0025.jpg=1.000=0=0=1,
271.563=drum0026.jpg=1.000=0=0=1,
271.625=drum0027.jpg=1.000=0=0=1,
271.688=drum0028.jpg=1.000=0=0=1,
271.750=drum0029.jpg=1.000=0=0=1,
271.813=drum0030.jpg=1.000=0=0=1,
271.875=drum0031.jpg=1.000=0=0=1,
271.938=drum0032.jpg=1.000=0=0=1,
272.000=ria0001.jpg=1.000=0=0=1,
272.063=wa.jpg=1.000=0=0=1,
272.125=ria0002.jpg=1.000=0=0=1,
272.188=wa.jpg=1.000=0=0=1,
272.250=ria0003.jpg=1.000=0=0=1,
272.313=wa.jpg=1.000=0=0=1,
272.375=ria0004.jpg=1.000=0=0=1,
272.438=wa.jpg=1.000=0=0=1,
272.500=ria0005.jpg=1.000=0=0=1,
272.563=wa.jpg=1.000=0=0=1,
272.625=ria0006.jpg=1.000=0=0=1,
272.688=wa.jpg=1.000=0=0=1,
272.750=ria0007.jpg=1.000=0=0=1,
272.813=wa.jpg=1.000=0=0=1,
272.875=ria0008.jpg=1.000=0=0=1,
272.938=wa.jpg=1.000=0=0=1,
273.000=ria0009.jpg=1.000=0=0=1,
273.063=wa.jpg=1.000=0=0=1,
273.125=ria0010.jpg=1.000=0=0=1,
273.188=wa.jpg=1.000=0=0=1,
273.250=ria0011.jpg=1.000=0=0=1,
273.313=wa.jpg=1.000=0=0=1,
273.375=ria0012.jpg=1.000=0=0=1,
273.438=wa.jpg=1.000=0=0=1,
273.500=ria0013.jpg=1.000=0=0=1,
273.563=wa.jpg=1.000=0=0=1,
273.625=ria0014.jpg=1.000=0=0=1,
273.688=wa.jpg=1.000=0=0=1,
273.750=ria0015.jpg=1.000=0=0=1,
273.875=ria0016.jpg=1.000=0=0=1,
274.000=fryu0001.jpg=1.000=0=0=1,
274.125=fryu0002.jpg=1.000=0=0=1,
274.250=fryu0003.jpg=1.000=0=0=1,
274.375=fryu0004.jpg=1.000=0=0=1,
274.500=fryu0005.jpg=1.000=0=0=1,
274.625=fryu0006.jpg=1.000=0=0=1,
274.750=fryu0007.jpg=1.000=0=0=1,
274.875=fryu0008.jpg=1.000=0=0=1,
275.000=fryu0009.jpg=1.000=0=0=1,
275.063=wa.jpg=1.000=0=0=1,
275.125=fryu0010.jpg=1.000=0=0=1,
275.188=wa.jpg=1.000=0=0=1,
275.250=fryu0011.jpg=1.000=0=0=1,
275.313=wa.jpg=1.000=0=0=1,
275.375=fryu0012.jpg=1.000=0=0=1,
275.438=wa.jpg=1.000=0=0=1,
275.500=fryu0013.jpg=1.000=0=0=1,
275.563=wa.jpg=1.000=0=0=1,
275.625=fryu0014.jpg=1.000=0=0=1,
275.688=wa.jpg=1.000=0=0=1,
275.750=fryu0015.jpg=1.000=0=0=1,
275.813=wa.jpg=1.000=0=0=1,
275.875=fryu0016.jpg=1.000=0=0=1,
275.938=wa.jpg=1.000=0=0=1,
276.000=fryu0017.jpg=1.000=0=0=1,
276.125=fryu0018.jpg=1.000=0=0=1,
276.250=fryu0019.jpg=1.000=0=0=1,
276.375=fryu0020.jpg=1.000=0=0=1,
276.500=fryu0021.jpg=1.000=0=0=1,
276.625=fryu0022.jpg=1.000=0=0=1,
276.750=fryu0023.jpg=1.000=0=0=1,
276.875=fryu0024.jpg=1.000=0=0=1,
277.000=fryu0025.jpg=1.000=0=0=1,
277.125=fryu0026.jpg=1.000=0=0=1,
277.250=fryu0027.jpg=1.000=0=0=1,
277.375=fryu0028.jpg=1.000=0=0=1,
277.500=fryu0029.jpg=1.000=0=0=1,
277.625=fryu0030.jpg=1.000=0=0=1,
277.750=fryu0031.jpg=1.000=0=0=1,
277.875=fryu0032.jpg=1.000=0=0=1,
278.000=fryu0001.jpg=1.000=0=0=1,
278.125=fryu0002.jpg=1.000=0=0=1,
278.250=fryu0003.jpg=1.000=0=0=1,
278.375=fryu0004.jpg=1.000=0=0=1,
278.500=fryu0005.jpg=1.000=0=0=1,
278.625=fryu0006.jpg=1.000=0=0=1,
278.750=fryu0007.jpg=1.000=0=0=1,
278.875=fryu0008.jpg=1.000=0=0=1,
279.000=fryu0009.jpg=1.000=0=0=1,
279.125=fryu0010.jpg=1.000=0=0=1,
279.250=fryu0011.jpg=1.000=0=0=1,
279.375=fryu0012.jpg=1.000=0=0=1,
279.500=fryu0013.jpg=1.000=0=0=1,
279.625=fryu0014.jpg=1.000=0=0=1,
279.750=fryu0015.jpg=1.000=0=0=1,
279.875=fryu0016.jpg=1.000=0=0=1,
280.000=fryu0017.jpg=1.000=0=0=1,
280.125=fryu0018.jpg=1.000=0=0=1,
280.250=fryu0019.jpg=1.000=0=0=1,
280.375=fryu0020.jpg=1.000=0=0=1,
280.500=fryu0021.jpg=1.000=0=0=1,
280.625=fryu0022.jpg=1.000=0=0=1,
280.750=fryu0023.jpg=1.000=0=0=1,
280.875=fryu0024.jpg=1.000=0=0=1,
281.000=fryu0025.jpg=1.000=0=0=1,
281.125=fryu0026.jpg=1.000=0=0=1,
281.250=fryu0027.jpg=1.000=0=0=1,
281.375=fryu0028.jpg=1.000=0=0=1,
281.500=fryu0029.jpg=1.000=0=0=1,
281.625=fryu0030.jpg=1.000=0=0=1,
281.750=fryu0031.jpg=1.000=0=0=1,
281.875=fryu0032.jpg=1.000=0=0=1,
282.000=fryu0001.jpg=1.000=0=0=1,
282.125=fryu0002.jpg=1.000=0=0=1,
282.250=fryu0003.jpg=1.000=0=0=1,
282.375=fryu0004.jpg=1.000=0=0=1,
282.500=fryu0005.jpg=1.000=0=0=1,
282.625=fryu0006.jpg=1.000=0=0=1,
282.750=fryu0007.jpg=1.000=0=0=1,
282.875=fryu0008.jpg=1.000=0=0=1,
283.000=fryu0009.jpg=1.000=0=0=1,
283.125=fryu0010.jpg=1.000=0=0=1,
283.250=fryu0011.jpg=1.000=0=0=1,
283.375=fryu0012.jpg=1.000=0=0=1,
283.500=fryu0013.jpg=1.000=0=0=1,
283.625=fryu0014.jpg=1.000=0=0=1,
283.750=fryu0015.jpg=1.000=0=0=1,
283.875=fryu0016.jpg=1.000=0=0=1,
284.000=bbb21.jpg=1.000=0=0=1,
284.063=fryu0017.jpg=1.000=0=0=1,
284.125=bbb22.jpg=1.000=0=0=1,
284.188=fryu0018.jpg=1.000=0=0=1,
284.250=bbb23.jpg=1.000=0=0=1,
284.313=fryu0019.jpg=1.000=0=0=1,
284.375=bbb24.jpg=1.000=0=0=1,
284.438=fryu0020.jpg=1.000=0=0=1,
284.500=bbb31.jpg=1.000=0=0=1,
284.563=fryu0021.jpg=1.000=0=0=1,
284.625=bbb32.jpg=1.000=0=0=1,
284.688=fryu0022.jpg=1.000=0=0=1,
284.750=bbb33.jpg=1.000=0=0=1,
284.813=fryu0023.jpg=1.000=0=0=1,
284.875=bbb34.jpg=1.000=0=0=1,
284.938=fryu0024.jpg=1.000=0=0=1,
285.000=bbb41.jpg=1.000=0=0=1,
285.063=fryu0025.jpg=1.000=0=0=1,
285.125=bbb42.jpg=1.000=0=0=1,
285.188=fryu0026.jpg=1.000=0=0=1,
285.250=bbb43.jpg=1.000=0=0=1,
285.313=fryu0027.jpg=1.000=0=0=1,
285.375=bbb44.jpg=1.000=0=0=1,
285.438=fryu0028.jpg=1.000=0=0=1,
285.500=bbb01.jpg=1.000=0=0=1,
285.563=fryu0029.jpg=1.000=0=0=1,
285.625=bbb02.jpg=1.000=0=0=1,
285.688=fryu0030.jpg=1.000=0=0=1,
285.750=bbb03.jpg=1.000=0=0=1,
285.813=fryu0031.jpg=1.000=0=0=1,
285.875=bbb04.jpg=1.000=0=0=1,
285.938=fryu0032.jpg=1.000=0=0=1,
286.000=bbb11.jpg=1.000=0=0=1,
286.063=fryu0001.jpg=1.000=0=0=1,
286.125=bbb12.jpg=1.000=0=0=1,
286.188=fryu0002.jpg=1.000=0=0=1,
286.250=bbb13.jpg=1.000=0=0=1,
286.313=fryu0003.jpg=1.000=0=0=1,
286.375=bbb14.jpg=1.000=0=0=1,
286.438=fryu0004.jpg=1.000=0=0=1,
286.500=bbb21.jpg=1.000=0=0=1,
286.563=fryu0005.jpg=1.000=0=0=1,
286.625=bbb22.jpg=1.000=0=0=1,
286.688=fryu0006.jpg=1.000=0=0=1,
286.750=bbb23.jpg=1.000=0=0=1,
286.813=fryu0007.jpg=1.000=0=0=1,
286.875=bbb24.jpg=1.000=0=0=1,
286.938=fryu0008.jpg=1.000=0=0=1,
287.000=bbb31.jpg=1.000=0=0=1,
287.063=fryu0009.jpg=1.000=0=0=1,
287.125=bbb32.jpg=1.000=0=0=1,
287.188=fryu0010.jpg=1.000=0=0=1,
287.250=bbb33.jpg=1.000=0=0=1,
287.313=fryu0011.jpg=1.000=0=0=1,
287.375=bbb34.jpg=1.000=0=0=1,
287.438=fryu0012.jpg=1.000=0=0=1,
287.500=bbb41.jpg=1.000=0=0=1,
287.563=fryu0013.jpg=1.000=0=0=1,
287.625=bbb42.jpg=1.000=0=0=1,
287.688=fryu0014.jpg=1.000=0=0=1,
287.750=bbb43.jpg=1.000=0=0=1,
287.813=fryu0015.jpg=1.000=0=0=1,
287.875=bbb44.jpg=1.000=0=0=1,
287.938=fryu0016.jpg=1.000=0=0=1,
288.000=drum0001.jpg=1.000=0=0=1,
288.125=drum0002.jpg=1.000=0=0=1,
288.250=drum0003.jpg=1.000=0=0=1,
288.375=drum0004.jpg=1.000=0=0=1,
288.500=drum0005.jpg=1.000=0=0=1,
288.625=drum0006.jpg=1.000=0=0=1,
288.750=drum0007.jpg=1.000=0=0=1,
288.875=drum0008.jpg=1.000=0=0=1,
289.000=drum0009.jpg=1.000=0=0=1,
289.125=drum0010.jpg=1.000=0=0=1,
289.250=drum0011.jpg=1.000=0=0=1,
289.375=drum0012.jpg=1.000=0=0=1,
289.500=drum0013.jpg=1.000=0=0=1,
289.625=drum0014.jpg=1.000=0=0=1,
289.750=drum0015.jpg=1.000=0=0=1,
289.875=drum0016.jpg=1.000=0=0=1,
290.000=drum0017.jpg=1.000=0=0=1,
290.125=drum0018.jpg=1.000=0=0=1,
290.250=drum0019.jpg=1.000=0=0=1,
290.375=drum0020.jpg=1.000=0=0=1,
290.500=drum0021.jpg=1.000=0=0=1,
290.625=drum0022.jpg=1.000=0=0=1,
290.750=drum0023.jpg=1.000=0=0=1,
290.875=drum0024.jpg=1.000=0=0=1,
291.000=drum0025.jpg=1.000=0=0=1,
291.125=drum0026.jpg=1.000=0=0=1,
291.250=drum0027.jpg=1.000=0=0=1,
291.375=drum0028.jpg=1.000=0=0=1,
291.500=drum0029.jpg=1.000=0=0=1,
291.625=drum0030.jpg=1.000=0=0=1,
291.750=drum0031.jpg=1.000=0=0=1,
291.875=drum0032.jpg=1.000=0=0=1,
292.000=drum0001.jpg=1.000=0=0=1,
292.125=drum0002.jpg=1.000=0=0=1,
292.250=drum0003.jpg=1.000=0=0=1,
292.375=drum0004.jpg=1.000=0=0=1,
292.500=drum0005.jpg=1.000=0=0=1,
292.625=drum0006.jpg=1.000=0=0=1,
292.750=drum0007.jpg=1.000=0=0=1,
292.875=drum0008.jpg=1.000=0=0=1,
293.000=drum0009.jpg=1.000=0=0=1,
293.125=drum0010.jpg=1.000=0=0=1,
293.250=drum0011.jpg=1.000=0=0=1,
293.375=drum0012.jpg=1.000=0=0=1,
293.500=drum0013.jpg=1.000=0=0=1,
293.625=drum0014.jpg=1.000=0=0=1,
293.750=drum0015.jpg=1.000=0=0=1,
293.875=drum0016.jpg=1.000=0=0=1,
294.000=drum0017.jpg=1.000=0=0=1,
294.125=drum0018.jpg=1.000=0=0=1,
294.250=drum0019.jpg=1.000=0=0=1,
294.375=drum0020.jpg=1.000=0=0=1,
294.500=drum0021.jpg=1.000=0=0=1,
294.625=drum0022.jpg=1.000=0=0=1,
294.750=drum0023.jpg=1.000=0=0=1,
294.875=drum0024.jpg=1.000=0=0=1,
295.000=drum0025.jpg=1.000=0=0=1,
295.125=drum0026.jpg=1.000=0=0=1,
295.250=drum0027.jpg=1.000=0=0=1,
295.375=drum0028.jpg=1.000=0=0=1,
295.500=drum0029.jpg=1.000=0=0=1,
295.563=bbb31.jpg=1.000=0=0=1,
295.625=drum0030.jpg=1.000=0=0=1,
295.688=bbb41.jpg=1.000=0=0=1,
295.750=drum0031.jpg=1.000=0=0=1,
295.813=bbb01.jpg=1.000=0=0=1,
295.875=drum0032.jpg=1.000=0=0=1,
295.938=bbb11.jpg=1.000=0=0=1,
296.000=drum0001.jpg=1.000=0=0=1,
296.125=drum0002.jpg=1.000=0=0=1,
296.250=drum0003.jpg=1.000=0=0=1,
296.375=drum0004.jpg=1.000=0=0=1,
296.500=drum0005.jpg=1.000=0=0=1,
296.625=drum0006.jpg=1.000=0=0=1,
296.750=drum0007.jpg=1.000=0=0=1,
296.875=drum0008.jpg=1.000=0=0=1,
297.000=drum0009.jpg=1.000=0=0=1,
297.125=drum0010.jpg=1.000=0=0=1,
297.250=drum0011.jpg=1.000=0=0=1,
297.375=drum0012.jpg=1.000=0=0=1,
297.500=drum0013.jpg=1.000=0=0=1,
297.563=bbb21.jpg=1.000=0=0=1,
297.625=drum0014.jpg=1.000=0=0=1,
297.688=bbb31.jpg=1.000=0=0=1,
297.750=drum0015.jpg=1.000=0=0=1,
297.813=bbb41.jpg=1.000=0=0=1,
297.875=drum0016.jpg=1.000=0=0=1,
297.938=bbb01.jpg=1.000=0=0=1,
298.000=drum0017.jpg=1.000=0=0=1,
298.125=drum0018.jpg=1.000=0=0=1,
298.250=drum0019.jpg=1.000=0=0=1,
298.375=drum0020.jpg=1.000=0=0=1,
298.500=drum0021.jpg=1.000=0=0=1,
298.625=drum0022.jpg=1.000=0=0=1,
298.750=drum0023.jpg=1.000=0=0=1,
298.875=drum0024.jpg=1.000=0=0=1,
299.000=drum0025.jpg=1.000=0=0=1,
299.125=drum0026.jpg=1.000=0=0=1,
299.250=drum0027.jpg=1.000=0=0=1,
299.375=drum0028.jpg=1.000=0=0=1,
299.500=drum0029.jpg=1.000=0=0=1,
299.625=drum0030.jpg=1.000=0=0=1,
299.750=drum0031.jpg=1.000=0=0=1,
299.875=drum0032.jpg=1.000=0=0=1,
300.000=zzz0016.jpg=1.000=0=0=1,
300.063=zzz0015.jpg=1.000=0=0=1,
300.125=zzz0014.jpg=1.000=0=0=1,
300.188=zzz0013.jpg=1.000=0=0=1,
300.250=zzz0012.jpg=1.000=0=0=1,
300.313=zzz0011.jpg=1.000=0=0=1,
300.375=zzz0010.jpg=1.000=0=0=1,
300.438=zzz0009.jpg=1.000=0=0=1,
300.500=zzz0008.jpg=1.000=0=0=1,
300.563=zzz0007.jpg=1.000=0=0=1,
300.625=zzz0006.jpg=1.000=0=0=1,
300.688=zzz0005.jpg=1.000=0=0=1,
300.750=zzz0004.jpg=1.000=0=0=1,
300.813=zzz0003.jpg=1.000=0=0=1,
300.875=zzz0002.jpg=1.000=0=0=1,
300.938=zzz0001.jpg=1.000=0=0=1,
301.000=zzt0016.jpg=1.000=0=0=1,
301.063=zzt0015.jpg=1.000=0=0=1,
301.125=zzt0014.jpg=1.000=0=0=1,
301.188=zzt0013.jpg=1.000=0=0=1,
301.250=zzt0012.jpg=1.000=0=0=1,
301.313=zzt0011.jpg=1.000=0=0=1,
301.375=zzt0010.jpg=1.000=0=0=1,
301.438=zzt0009.jpg=1.000=0=0=1,
301.500=zzt0008.jpg=1.000=0=0=1,
301.563=zzt0007.jpg=1.000=0=0=1,
301.625=zzt0006.jpg=1.000=0=0=1,
301.688=zzt0005.jpg=1.000=0=0=1,
301.750=zzt0004.jpg=1.000=0=0=1,
301.813=zzt0003.jpg=1.000=0=0=1,
301.875=zzt0002.jpg=1.000=0=0=1,
301.938=zzt0001.jpg=1.000=0=0=1,
302.000=yyy0016.jpg=1.000=0=0=1,
302.063=yyy0015.jpg=1.000=0=0=1,
302.125=yyy0014.jpg=1.000=0=0=1,
302.188=yyy0013.jpg=1.000=0=0=1,
302.250=yyy0012.jpg=1.000=0=0=1,
302.313=yyy0011.jpg=1.000=0=0=1,
302.375=yyy0010.jpg=1.000=0=0=1,
302.438=yyy0009.jpg=1.000=0=0=1,
302.500=yyy0008.jpg=1.000=0=0=1,
302.563=yyy0007.jpg=1.000=0=0=1,
302.625=yyy0006.jpg=1.000=0=0=1,
302.688=yyy0005.jpg=1.000=0=0=1,
302.750=yyy0004.jpg=1.000=0=0=1,
302.813=yyy0003.jpg=1.000=0=0=1,
302.875=yyy0002.jpg=1.000=0=0=1,
302.938=yyy0001.jpg=1.000=0=0=1,
303.000=xxx0016.jpg=1.000=0=0=1,
303.063=xxx0015.jpg=1.000=0=0=1,
303.125=xxx0014.jpg=1.000=0=0=1,
303.188=xxx0013.jpg=1.000=0=0=1,
303.250=xxx0012.jpg=1.000=0=0=1,
303.313=xxx0011.jpg=1.000=0=0=1,
303.375=xxx0010.jpg=1.000=0=0=1,
303.438=xxx0009.jpg=1.000=0=0=1,
303.500=xxx0008.jpg=1.000=0=0=1,
303.563=xxx0007.jpg=1.000=0=0=1,
303.625=xxx0006.jpg=1.000=0=0=1,
303.688=xxx0005.jpg=1.000=0=0=1,
303.750=xxx0004.jpg=1.000=0=0=1,
303.813=xxx0003.jpg=1.000=0=0=1,
303.875=xxx0002.jpg=1.000=0=0=1,
303.938=xxx0001.jpg=1.000=0=0=1,
304.000=ria0001.jpg=1.000=0=0=1,
304.063=wa.jpg=1.000=0=0=1,
304.125=ria0002.jpg=1.000=0=0=1,
304.188=wa.jpg=1.000=0=0=1,
304.250=ria0003.jpg=1.000=0=0=1,
304.313=wa.jpg=1.000=0=0=1,
304.375=ria0004.jpg=1.000=0=0=1,
304.438=wa.jpg=1.000=0=0=1,
304.500=ria0005.jpg=1.000=0=0=1,
304.563=wa.jpg=1.000=0=0=1,
304.625=ria0006.jpg=1.000=0=0=1,
304.688=wa.jpg=1.000=0=0=1,
304.750=ria0007.jpg=1.000=0=0=1,
304.813=wa.jpg=1.000=0=0=1,
304.875=ria0008.jpg=1.000=0=0=1,
304.938=wa.jpg=1.000=0=0=1,
305.000=ria0009.jpg=1.000=0=0=1,
305.063=wa.jpg=1.000=0=0=1,
305.125=ria0010.jpg=1.000=0=0=1,
305.188=wa.jpg=1.000=0=0=1,
305.250=ria0011.jpg=1.000=0=0=1,
305.313=wa.jpg=1.000=0=0=1,
305.375=ria0012.jpg=1.000=0=0=1,
305.438=wa.jpg=1.000=0=0=1,
305.500=ria0013.jpg=1.000=0=0=1,
305.563=wa.jpg=1.000=0=0=1,
305.625=ria0014.jpg=1.000=0=0=1,
305.688=wa.jpg=1.000=0=0=1,
305.750=ria0015.jpg=1.000=0=0=1,
305.813=wa.jpg=1.000=0=0=1,
305.875=ria0016.jpg=1.000=0=0=1,
306.000=drum0001.jpg=1.000=0=0=1,
306.125=drum0002.jpg=1.000=0=0=1,
306.250=drum0003.jpg=1.000=0=0=1,
306.375=drum0004.jpg=1.000=0=0=1,
306.500=drum0005.jpg=1.000=0=0=1,
306.625=drum0006.jpg=1.000=0=0=1,
306.750=drum0007.jpg=1.000=0=0=1,
306.875=drum0008.jpg=1.000=0=0=1,
307.000=drum0009.jpg=1.000=0=0=1,
307.063=wa.jpg=1.000=0=0=1,
307.125=drum0010.jpg=1.000=0=0=1,
307.188=wa.jpg=1.000=0=0=1,
307.250=drum0011.jpg=1.000=0=0=1,
307.313=wa.jpg=1.000=0=0=1,
307.375=drum0012.jpg=1.000=0=0=1,
307.438=wa.jpg=1.000=0=0=1,
307.500=drum0013.jpg=1.000=0=0=1,
307.563=wa.jpg=1.000=0=0=1,
307.625=drum0014.jpg=1.000=0=0=1,
307.688=wa.jpg=1.000=0=0=1,
307.750=drum0015.jpg=1.000=0=0=1,
307.813=wa.jpg=1.000=0=0=1,
307.875=drum0016.jpg=1.000=0=0=1,
307.938=wa.jpg=1.000=0=0=1,
308.000=drum0017.jpg=1.000=0=0=1,
308.125=drum0018.jpg=1.000=0=0=1,
308.250=drum0019.jpg=1.000=0=0=1,
308.375=drum0020.jpg=1.000=0=0=1,
308.500=drum0021.jpg=1.000=0=0=1,
308.625=drum0022.jpg=1.000=0=0=1,
308.750=drum0023.jpg=1.000=0=0=1,
308.875=drum0024.jpg=1.000=0=0=1,
309.000=drum0025.jpg=1.000=0=0=1,
309.125=drum0026.jpg=1.000=0=0=1,
309.250=drum0027.jpg=1.000=0=0=1,
309.375=drum0028.jpg=1.000=0=0=1,
309.500=drum0029.jpg=1.000=0=0=1,
309.625=drum0030.jpg=1.000=0=0=1,
309.750=drum0031.jpg=1.000=0=0=1,
309.875=drum0032.jpg=1.000=0=0=1,
310.000=drum0001.jpg=1.000=0=0=1,
310.125=drum0002.jpg=1.000=0=0=1,
310.250=drum0003.jpg=1.000=0=0=1,
310.375=drum0004.jpg=1.000=0=0=1,
310.500=drum0005.jpg=1.000=0=0=1,
310.625=drum0006.jpg=1.000=0=0=1,
310.750=drum0007.jpg=1.000=0=0=1,
310.875=drum0008.jpg=1.000=0=0=1,
311.000=drum0009.jpg=1.000=0=0=1,
311.125=drum0010.jpg=1.000=0=0=1,
311.250=drum0011.jpg=1.000=0=0=1,
311.375=drum0012.jpg=1.000=0=0=1,
311.500=drum0013.jpg=1.000=0=0=1,
311.625=drum0014.jpg=1.000=0=0=1,
311.750=drum0015.jpg=1.000=0=0=1,
311.875=drum0016.jpg=1.000=0=0=1,
312.000=drum0017.jpg=1.000=0=0=1,
312.125=drum0018.jpg=1.000=0=0=1,
312.250=drum0019.jpg=1.000=0=0=1,
312.375=drum0020.jpg=1.000=0=0=1,
312.500=drum0021.jpg=1.000=0=0=1,
312.625=drum0022.jpg=1.000=0=0=1,
312.750=drum0023.jpg=1.000=0=0=1,
312.875=drum0024.jpg=1.000=0=0=1,
313.000=drum0025.jpg=1.000=0=0=1,
313.125=drum0026.jpg=1.000=0=0=1,
313.250=drum0027.jpg=1.000=0=0=1,
313.375=drum0028.jpg=1.000=0=0=1,
313.500=drum0029.jpg=1.000=0=0=1,
313.625=drum0030.jpg=1.000=0=0=1,
313.750=drum0031.jpg=1.000=0=0=1,
313.875=drum0032.jpg=1.000=0=0=1,
314.000=drum0001.jpg=1.000=0=0=1,
314.125=drum0002.jpg=1.000=0=0=1,
314.250=drum0003.jpg=1.000=0=0=1,
314.375=drum0004.jpg=1.000=0=0=1,
314.500=drum0005.jpg=1.000=0=0=1,
314.625=drum0006.jpg=1.000=0=0=1,
314.750=drum0007.jpg=1.000=0=0=1,
314.875=drum0008.jpg=1.000=0=0=1,
315.000=drum0009.jpg=1.000=0=0=1,
315.125=drum0010.jpg=1.000=0=0=1,
315.250=drum0011.jpg=1.000=0=0=1,
315.375=drum0012.jpg=1.000=0=0=1,
315.500=drum0013.jpg=1.000=0=0=1,
315.625=drum0014.jpg=1.000=0=0=1,
315.750=drum0015.jpg=1.000=0=0=1,
315.875=drum0016.jpg=1.000=0=0=1,
316.000=drum0017.jpg=1.000=0=0=1,
316.125=drum0018.jpg=1.000=0=0=1,
316.250=drum0019.jpg=1.000=0=0=1,
316.375=drum0020.jpg=1.000=0=0=1,
316.500=drum0021.jpg=1.000=0=0=1,
316.625=drum0022.jpg=1.000=0=0=1,
316.750=drum0023.jpg=1.000=0=0=1,
316.875=drum0024.jpg=1.000=0=0=1,
317.000=drum0025.jpg=1.000=0=0=1,
317.125=drum0026.jpg=1.000=0=0=1,
317.250=drum0027.jpg=1.000=0=0=1,
317.375=drum0028.jpg=1.000=0=0=1,
317.500=drum0029.jpg=1.000=0=0=1,
317.625=drum0030.jpg=1.000=0=0=1,
317.750=drum0031.jpg=1.000=0=0=1,
317.875=drum0032.jpg=1.000=0=0=1,
318.000=drum0001.jpg=1.000=0=0=1,
318.125=drum0002.jpg=1.000=0=0=1,
318.250=drum0003.jpg=1.000=0=0=1,
318.375=drum0004.jpg=1.000=0=0=1,
318.500=drum0005.jpg=1.000=0=0=1,
318.625=drum0006.jpg=1.000=0=0=1,
318.750=drum0007.jpg=1.000=0=0=1,
318.875=drum0008.jpg=1.000=0=0=1,
319.000=drum0009.jpg=1.000=0=0=1,
319.125=drum0010.jpg=1.000=0=0=1,
319.250=drum0011.jpg=1.000=0=0=1,
319.375=drum0012.jpg=1.000=0=0=1,
319.500=drum0013.jpg=1.000=0=0=1,
319.625=drum0014.jpg=1.000=0=0=1,
319.750=drum0015.jpg=1.000=0=0=1,
319.875=drum0016.jpg=1.000=0=0=1,
320.000=fryu0001.jpg=1.000=0=0=1,
320.125=fryu0002.jpg=1.000=0=0=1,
320.250=fryu0003.jpg=1.000=0=0=1,
320.375=fryu0004.jpg=1.000=0=0=1,
320.500=fryu0005.jpg=1.000=0=0=1,
320.625=fryu0006.jpg=1.000=0=0=1,
320.750=fryu0007.jpg=1.000=0=0=1,
320.875=fryu0008.jpg=1.000=0=0=1,
321.000=fryu0009.jpg=1.000=0=0=1,
321.125=fryu0010.jpg=1.000=0=0=1,
321.250=fryu0011.jpg=1.000=0=0=1,
321.375=fryu0012.jpg=1.000=0=0=1,
321.500=fryu0013.jpg=1.000=0=0=1,
321.625=fryu0014.jpg=1.000=0=0=1,
321.750=fryu0015.jpg=1.000=0=0=1,
321.875=fryu0016.jpg=1.000=0=0=1,
322.000=fryu0017.jpg=1.000=0=0=1,
322.125=fryu0018.jpg=1.000=0=0=1,
322.250=fryu0019.jpg=1.000=0=0=1,
322.375=fryu0020.jpg=1.000=0=0=1,
322.500=fryu0021.jpg=1.000=0=0=1,
322.625=fryu0022.jpg=1.000=0=0=1,
322.750=fryu0023.jpg=1.000=0=0=1,
322.875=fryu0024.jpg=1.000=0=0=1,
323.000=fryu0025.jpg=1.000=0=0=1,
323.125=fryu0026.jpg=1.000=0=0=1,
323.250=fryu0027.jpg=1.000=0=0=1,
323.375=fryu0028.jpg=1.000=0=0=1,
323.500=fryu0029.jpg=1.000=0=0=1,
323.625=fryu0030.jpg=1.000=0=0=1,
323.750=fryu0031.jpg=1.000=0=0=1,
323.875=fryu0032.jpg=1.000=0=0=1,
324.000=fryu0001.jpg=1.000=0=0=1,
324.125=fryu0002.jpg=1.000=0=0=1,
324.250=fryu0003.jpg=1.000=0=0=1,
324.375=fryu0004.jpg=1.000=0=0=1,
324.500=fryu0005.jpg=1.000=0=0=1,
324.625=fryu0006.jpg=1.000=0=0=1,
324.750=fryu0007.jpg=1.000=0=0=1,
324.875=fryu0008.jpg=1.000=0=0=1,
325.000=fryu0009.jpg=1.000=0=0=1,
325.125=fryu0010.jpg=1.000=0=0=1,
325.250=fryu0011.jpg=1.000=0=0=1,
325.375=fryu0012.jpg=1.000=0=0=1,
325.500=fryu0013.jpg=1.000=0=0=1,
325.625=fryu0014.jpg=1.000=0=0=1,
325.750=fryu0015.jpg=1.000=0=0=1,
325.875=fryu0016.jpg=1.000=0=0=1,
326.000=fryu0017.jpg=1.000=0=0=1,
326.125=fryu0018.jpg=1.000=0=0=1,
326.250=fryu0019.jpg=1.000=0=0=1,
326.375=fryu0020.jpg=1.000=0=0=1,
326.500=fryu0021.jpg=1.000=0=0=1,
326.625=fryu0022.jpg=1.000=0=0=1,
326.750=fryu0023.jpg=1.000=0=0=1,
326.875=fryu0024.jpg=1.000=0=0=1,
327.000=fryu0025.jpg=1.000=0=0=1,
327.125=fryu0026.jpg=1.000=0=0=1,
327.250=fryu0027.jpg=1.000=0=0=1,
327.375=fryu0028.jpg=1.000=0=0=1,
327.500=fryu0029.jpg=1.000=0=0=1,
327.625=fryu0030.jpg=1.000=0=0=1,
327.750=fryu0031.jpg=1.000=0=0=1,
327.875=fryu0032.jpg=1.000=0=0=1,
328.000=fryu0001.jpg=1.000=0=0=1,
328.125=fryu0002.jpg=1.000=0=0=1,
328.250=fryu0003.jpg=1.000=0=0=1,
328.375=fryu0004.jpg=1.000=0=0=1,
328.500=fryu0005.jpg=1.000=0=0=1,
328.625=fryu0006.jpg=1.000=0=0=1,
328.750=fryu0007.jpg=1.000=0=0=1,
328.875=fryu0008.jpg=1.000=0=0=1,
329.000=fryu0009.jpg=1.000=0=0=1,
329.125=fryu0010.jpg=1.000=0=0=1,
329.250=fryu0011.jpg=1.000=0=0=1,
329.375=fryu0012.jpg=1.000=0=0=1,
329.500=fryu0013.jpg=1.000=0=0=1,
329.625=fryu0014.jpg=1.000=0=0=1,
329.750=fryu0015.jpg=1.000=0=0=1,
329.875=fryu0016.jpg=1.000=0=0=1,
330.000=fryu0017.jpg=1.000=0=0=1,
330.125=fryu0018.jpg=1.000=0=0=1,
330.250=fryu0019.jpg=1.000=0=0=1,
330.375=fryu0020.jpg=1.000=0=0=1,
330.500=fryu0021.jpg=1.000=0=0=1,
330.625=fryu0022.jpg=1.000=0=0=1,
330.750=fryu0023.jpg=1.000=0=0=1,
330.875=fryu0024.jpg=1.000=0=0=1,
331.000=fryu0025.jpg=1.000=0=0=1,
331.125=fryu0026.jpg=1.000=0=0=1,
331.250=fryu0027.jpg=1.000=0=0=1,
331.375=fryu0028.jpg=1.000=0=0=1,
331.500=fryu0029.jpg=1.000=0=0=1,
331.625=fryu0030.jpg=1.000=0=0=1,
331.750=fryu0031.jpg=1.000=0=0=1,
331.875=fryu0032.jpg=1.000=0=0=1,
332.000=xxx0016.jpg=1.000=0=0=1,
332.063=xxx0015.jpg=1.000=0=0=1,
332.125=xxx0014.jpg=1.000=0=0=1,
332.188=xxx0013.jpg=1.000=0=0=1,
332.250=xxx0012.jpg=1.000=0=0=1,
332.313=xxx0011.jpg=1.000=0=0=1,
332.375=xxx0010.jpg=1.000=0=0=1,
332.438=xxx0009.jpg=1.000=0=0=1,
332.500=xxx0008.jpg=1.000=0=0=1,
332.563=xxx0007.jpg=1.000=0=0=1,
332.625=xxx0006.jpg=1.000=0=0=1,
332.688=xxx0005.jpg=1.000=0=0=1,
332.750=xxx0004.jpg=1.000=0=0=1,
332.813=xxx0003.jpg=1.000=0=0=1,
332.875=xxx0002.jpg=1.000=0=0=1,
332.938=xxx0001.jpg=1.000=0=0=1,
333.000=yyy0016.jpg=1.000=0=0=1,
333.063=yyy0015.jpg=1.000=0=0=1,
333.125=yyy0014.jpg=1.000=0=0=1,
333.188=yyy0013.jpg=1.000=0=0=1,
333.250=yyy0012.jpg=1.000=0=0=1,
333.313=yyy0011.jpg=1.000=0=0=1,
333.375=yyy0010.jpg=1.000=0=0=1,
333.438=yyy0009.jpg=1.000=0=0=1,
333.500=yyy0008.jpg=1.000=0=0=1,
333.563=yyy0007.jpg=1.000=0=0=1,
333.625=yyy0006.jpg=1.000=0=0=1,
333.688=yyy0005.jpg=1.000=0=0=1,
333.750=yyy0004.jpg=1.000=0=0=1,
333.813=yyy0003.jpg=1.000=0=0=1,
333.875=yyy0002.jpg=1.000=0=0=1,
333.938=yyy0001.jpg=1.000=0=0=1,
334.000=zzt0016.jpg=1.000=0=0=1,
334.063=zzt0015.jpg=1.000=0=0=1,
334.125=zzt0014.jpg=1.000=0=0=1,
334.188=zzt0013.jpg=1.000=0=0=1,
334.250=zzt0012.jpg=1.000=0=0=1,
334.313=zzt0011.jpg=1.000=0=0=1,
334.375=zzt0010.jpg=1.000=0=0=1,
334.438=zzt0009.jpg=1.000=0=0=1,
334.500=zzt0008.jpg=1.000=0=0=1,
334.563=zzt0007.jpg=1.000=0=0=1,
334.625=zzt0006.jpg=1.000=0=0=1,
334.688=zzt0005.jpg=1.000=0=0=1,
334.750=zzt0004.jpg=1.000=0=0=1,
334.813=zzt0003.jpg=1.000=0=0=1,
334.875=zzt0002.jpg=1.000=0=0=1,
334.938=zzt0001.jpg=1.000=0=0=1,
335.000=zzz0016.jpg=1.000=0=0=1,
335.063=zzz0015.jpg=1.000=0=0=1,
335.125=zzz0014.jpg=1.000=0=0=1,
335.188=zzz0013.jpg=1.000=0=0=1,
335.250=zzz0012.jpg=1.000=0=0=1,
335.313=zzz0011.jpg=1.000=0=0=1,
335.375=zzz0010.jpg=1.000=0=0=1,
335.438=zzz0009.jpg=1.000=0=0=1,
335.500=zzz0008.jpg=1.000=0=0=1,
335.563=zzz0007.jpg=1.000=0=0=1,
335.625=zzz0006.jpg=1.000=0=0=1,
335.688=zzz0005.jpg=1.000=0=0=1,
335.750=zzz0004.jpg=1.000=0=0=1,
335.813=zzz0003.jpg=1.000=0=0=1,
335.875=zzz0002.jpg=1.000=0=0=1,
335.938=zzz0001.jpg=1.000=0=0=1,
336.000=ria0001.jpg=1.000=0=0=1,
336.063=wa.jpg=1.000=0=0=1,
336.125=ria0002.jpg=1.000=0=0=1,
336.188=wa.jpg=1.000=0=0=1,
336.250=ria0003.jpg=1.000=0=0=1,
336.313=wa.jpg=1.000=0=0=1,
336.375=ria0004.jpg=1.000=0=0=1,
336.438=wa.jpg=1.000=0=0=1,
336.500=ria0005.jpg=1.000=0=0=1,
336.563=wa.jpg=1.000=0=0=1,
336.625=ria0006.jpg=1.000=0=0=1,
336.688=wa.jpg=1.000=0=0=1,
336.750=ria0007.jpg=1.000=0=0=1,
336.813=wa.jpg=1.000=0=0=1,
336.875=ria0008.jpg=1.000=0=0=1,
336.938=wa.jpg=1.000=0=0=1,
337.000=ria0009.jpg=1.000=0=0=1,
337.063=wa.jpg=1.000=0=0=1,
337.125=ria0010.jpg=1.000=0=0=1,
337.188=wa.jpg=1.000=0=0=1,
337.250=ria0011.jpg=1.000=0=0=1,
337.313=wa.jpg=1.000=0=0=1,
337.375=ria0012.jpg=1.000=0=0=1,
337.438=wa.jpg=1.000=0=0=1,
337.500=ria0013.jpg=1.000=0=0=1,
337.563=wa.jpg=1.000=0=0=1,
337.625=ria0014.jpg=1.000=0=0=1,
337.688=wa.jpg=1.000=0=0=1,
337.750=ria0015.jpg=1.000=0=0=1,
337.875=ria0016.jpg=1.000=0=0=1,
338.000=fryu0001.jpg=1.000=0=0=1,
338.125=fryu0002.jpg=1.000=0=0=1,
338.250=fryu0003.jpg=1.000=0=0=1,
338.375=fryu0004.jpg=1.000=0=0=1,
338.500=fryu0005.jpg=1.000=0=0=1,
338.625=fryu0006.jpg=1.000=0=0=1,
338.750=fryu0007.jpg=1.000=0=0=1,
338.875=fryu0008.jpg=1.000=0=0=1,
339.000=fryu0009.jpg=1.000=0=0=1,
339.063=wa.jpg=1.000=0=0=1,
339.125=fryu0010.jpg=1.000=0=0=1,
339.188=wa.jpg=1.000=0=0=1,
339.250=fryu0011.jpg=1.000=0=0=1,
339.313=wa.jpg=1.000=0=0=1,
339.375=fryu0012.jpg=1.000=0=0=1,
339.438=wa.jpg=1.000=0=0=1,
339.500=fryu0013.jpg=1.000=0=0=1,
339.563=wa.jpg=1.000=0=0=1,
339.625=fryu0014.jpg=1.000=0=0=1,
339.688=wa.jpg=1.000=0=0=1,
339.750=fryu0015.jpg=1.000=0=0=1,
339.813=wa.jpg=1.000=0=0=1,
339.875=fryu0016.jpg=1.000=0=0=1,
339.938=wa.jpg=1.000=0=0=1,
340.000=fryu0017.jpg=1.000=0=0=1,
340.125=fryu0018.jpg=1.000=0=0=1,
340.250=fryu0019.jpg=1.000=0=0=1,
340.375=fryu0020.jpg=1.000=0=0=1,
340.500=fryu0021.jpg=1.000=0=0=1,
340.625=fryu0022.jpg=1.000=0=0=1,
340.750=fryu0023.jpg=1.000=0=0=1,
340.875=fryu0024.jpg=1.000=0=0=1,
341.000=fryu0025.jpg=1.000=0=0=1,
341.125=fryu0026.jpg=1.000=0=0=1,
341.250=fryu0027.jpg=1.000=0=0=1,
341.375=fryu0028.jpg=1.000=0=0=1,
341.500=fryu0029.jpg=1.000=0=0=1,
341.625=fryu0030.jpg=1.000=0=0=1,
341.750=fryu0031.jpg=1.000=0=0=1,
341.875=fryu0032.jpg=1.000=0=0=1,
342.000=fryu0001.jpg=1.000=0=0=1,
342.125=fryu0002.jpg=1.000=0=0=1,
342.250=fryu0003.jpg=1.000=0=0=1,
342.375=fryu0004.jpg=1.000=0=0=1,
342.500=fryu0005.jpg=1.000=0=0=1,
342.625=fryu0006.jpg=1.000=0=0=1,
342.750=fryu0007.jpg=1.000=0=0=1,
342.875=fryu0008.jpg=1.000=0=0=1,
343.000=fryu0009.jpg=1.000=0=0=1,
343.125=fryu0010.jpg=1.000=0=0=1,
343.250=fryu0011.jpg=1.000=0=0=1,
343.375=fryu0012.jpg=1.000=0=0=1,
343.500=fryu0013.jpg=1.000=0=0=1,
343.625=fryu0014.jpg=1.000=0=0=1,
343.750=fryu0015.jpg=1.000=0=0=1,
343.875=fryu0016.jpg=1.000=0=0=1,
344.000=fryu0017.jpg=1.000=0=0=1,
344.125=fryu0018.jpg=1.000=0=0=1,
344.250=fryu0019.jpg=1.000=0=0=1,
344.375=fryu0020.jpg=1.000=0=0=1,
344.500=fryu0021.jpg=1.000=0=0=1,
344.625=fryu0022.jpg=1.000=0=0=1,
344.750=fryu0023.jpg=1.000=0=0=1,
344.875=fryu0024.jpg=1.000=0=0=1,
345.000=fryu0025.jpg=1.000=0=0=1,
345.125=fryu0026.jpg=1.000=0=0=1,
345.250=fryu0027.jpg=1.000=0=0=1,
345.375=fryu0028.jpg=1.000=0=0=1,
345.500=fryu0029.jpg=1.000=0=0=1,
345.625=fryu0030.jpg=1.000=0=0=1,
345.750=fryu0031.jpg=1.000=0=0=1,
345.875=fryu0032.jpg=1.000=0=0=1,
346.000=fryu0001.jpg=1.000=0=0=1,
346.125=fryu0002.jpg=1.000=0=0=1,
346.250=fryu0003.jpg=1.000=0=0=1,
346.375=fryu0004.jpg=1.000=0=0=1,
346.500=fryu0005.jpg=1.000=0=0=1,
346.625=fryu0006.jpg=1.000=0=0=1,
346.750=fryu0007.jpg=1.000=0=0=1,
346.875=fryu0008.jpg=1.000=0=0=1,
347.000=fryu0009.jpg=1.000=0=0=1,
347.125=fryu0010.jpg=1.000=0=0=1,
347.250=fryu0011.jpg=1.000=0=0=1,
347.375=fryu0012.jpg=1.000=0=0=1,
347.500=fryu0013.jpg=1.000=0=0=1,
347.625=fryu0014.jpg=1.000=0=0=1,
347.750=fryu0015.jpg=1.000=0=0=1,
347.875=fryu0016.jpg=1.000=0=0=1,
348.000=fryu0017.jpg=1.000=0=0=1,
348.125=fryu0018.jpg=1.000=0=0=1,
348.250=fryu0019.jpg=1.000=0=0=1,
348.375=fryu0020.jpg=1.000=0=0=1,
348.500=fryu0021.jpg=1.000=0=0=1,
348.625=fryu0022.jpg=1.000=0=0=1,
348.750=fryu0023.jpg=1.000=0=0=1,
348.875=fryu0024.jpg=1.000=0=0=1,
349.000=fryu0025.jpg=1.000=0=0=1,
349.125=fryu0026.jpg=1.000=0=0=1,
349.250=fryu0027.jpg=1.000=0=0=1,
349.375=fryu0028.jpg=1.000=0=0=1,
349.500=fryu0029.jpg=1.000=0=0=1,
349.625=fryu0030.jpg=1.000=0=0=1,
349.750=fryu0031.jpg=1.000=0=0=1,
349.875=fryu0032.jpg=1.000=0=0=1,
350.000=fryu0001.jpg=1.000=0=0=1,
350.125=fryu0002.jpg=1.000=0=0=1,
350.250=fryu0003.jpg=1.000=0=0=1,
350.375=fryu0004.jpg=1.000=0=0=1,
350.500=fryu0005.jpg=1.000=0=0=1,
350.625=fryu0006.jpg=1.000=0=0=1,
350.750=fryu0007.jpg=1.000=0=0=1,
350.875=fryu0008.jpg=1.000=0=0=1,
351.000=fryu0009.jpg=1.000=0=0=1,
351.125=fryu0010.jpg=1.000=0=0=1,
351.250=fryu0011.jpg=1.000=0=0=1,
351.375=fryu0012.jpg=1.000=0=0=1,
351.500=fryu0013.jpg=1.000=0=0=1,
351.625=fryu0014.jpg=1.000=0=0=1,
351.750=fryu0015.jpg=1.000=0=0=1,
351.875=fryu0016.jpg=1.000=0=0=1,
352.000=drum0001.jpg=1.000=0=0=1,
352.125=drum0002.jpg=1.000=0=0=1,
352.250=drum0003.jpg=1.000=0=0=1,
352.375=drum0004.jpg=1.000=0=0=1,
352.500=drum0005.jpg=1.000=0=0=1,
352.625=drum0006.jpg=1.000=0=0=1,
352.750=drum0007.jpg=1.000=0=0=1,
352.875=drum0008.jpg=1.000=0=0=1,
353.000=drum0009.jpg=1.000=0=0=1,
353.125=drum0010.jpg=1.000=0=0=1,
353.250=drum0011.jpg=1.000=0=0=1,
353.375=drum0012.jpg=1.000=0=0=1,
353.500=drum0013.jpg=1.000=0=0=1,
353.625=drum0014.jpg=1.000=0=0=1,
353.750=drum0015.jpg=1.000=0=0=1,
353.875=drum0016.jpg=1.000=0=0=1,
354.000=drum0017.jpg=1.000=0=0=1,
354.125=drum0018.jpg=1.000=0=0=1,
354.250=drum0019.jpg=1.000=0=0=1,
354.375=drum0020.jpg=1.000=0=0=1,
354.500=drum0021.jpg=1.000=0=0=1,
354.625=drum0022.jpg=1.000=0=0=1,
354.750=drum0023.jpg=1.000=0=0=1,
354.875=drum0024.jpg=1.000=0=0=1,
355.000=drum0025.jpg=1.000=0=0=1,
355.125=drum0026.jpg=1.000=0=0=1,
355.250=drum0027.jpg=1.000=0=0=1,
355.375=drum0028.jpg=1.000=0=0=1,
355.500=drum0029.jpg=1.000=0=0=1,
355.625=drum0030.jpg=1.000=0=0=1,
355.750=drum0031.jpg=1.000=0=0=1,
355.875=drum0032.jpg=1.000=0=0=1,
356.000=drum0001.jpg=1.000=0=0=1,
356.125=drum0002.jpg=1.000=0=0=1,
356.250=drum0003.jpg=1.000=0=0=1,
356.375=drum0004.jpg=1.000=0=0=1,
356.500=drum0005.jpg=1.000=0=0=1,
356.625=drum0006.jpg=1.000=0=0=1,
356.750=drum0007.jpg=1.000=0=0=1,
356.875=drum0008.jpg=1.000=0=0=1,
357.000=drum0009.jpg=1.000=0=0=1,
357.125=drum0010.jpg=1.000=0=0=1,
357.250=drum0011.jpg=1.000=0=0=1,
357.375=drum0012.jpg=1.000=0=0=1,
357.500=drum0013.jpg=1.000=0=0=1,
357.625=drum0014.jpg=1.000=0=0=1,
357.750=drum0015.jpg=1.000=0=0=1,
357.875=drum0016.jpg=1.000=0=0=1,
358.000=drum0017.jpg=1.000=0=0=1,
358.125=drum0018.jpg=1.000=0=0=1,
358.250=drum0019.jpg=1.000=0=0=1,
358.375=drum0020.jpg=1.000=0=0=1,
358.500=drum0021.jpg=1.000=0=0=1,
358.625=drum0022.jpg=1.000=0=0=1,
358.750=drum0023.jpg=1.000=0=0=1,
358.875=drum0024.jpg=1.000=0=0=1,
359.000=drum0025.jpg=1.000=0=0=1,
359.125=drum0026.jpg=1.000=0=0=1,
359.250=drum0027.jpg=1.000=0=0=1,
359.375=drum0028.jpg=1.000=0=0=1,
359.500=drum0029.jpg=1.000=0=0=1,
359.625=drum0030.jpg=1.000=0=0=1,
359.750=drum0031.jpg=1.000=0=0=1,
359.875=drum0032.jpg=1.000=0=0=1,
360.000=drum0001.jpg=1.000=0=0=1,
360.125=drum0002.jpg=1.000=0=0=1,
360.250=drum0003.jpg=1.000=0=0=1,
360.375=drum0004.jpg=1.000=0=0=1,
360.500=drum0005.jpg=1.000=0=0=1,
360.625=drum0006.jpg=1.000=0=0=1,
360.750=drum0007.jpg=1.000=0=0=1,
360.875=drum0008.jpg=1.000=0=0=1,
361.000=drum0009.jpg=1.000=0=0=1,
361.125=drum0010.jpg=1.000=0=0=1,
361.250=drum0011.jpg=1.000=0=0=1,
361.375=drum0012.jpg=1.000=0=0=1,
361.500=drum0013.jpg=1.000=0=0=1,
361.625=drum0014.jpg=1.000=0=0=1,
361.750=drum0015.jpg=1.000=0=0=1,
361.875=drum0016.jpg=1.000=0=0=1,
362.000=drum0017.jpg=1.000=0=0=1,
362.125=drum0018.jpg=1.000=0=0=1,
362.250=drum0019.jpg=1.000=0=0=1,
362.375=drum0020.jpg=1.000=0=0=1,
362.500=drum0021.jpg=1.000=0=0=1,
362.625=drum0022.jpg=1.000=0=0=1,
362.750=drum0023.jpg=1.000=0=0=1,
362.875=drum0024.jpg=1.000=0=0=1,
363.000=drum0025.jpg=1.000=0=0=1,
363.125=drum0026.jpg=1.000=0=0=1,
363.250=drum0027.jpg=1.000=0=0=1,
363.375=drum0028.jpg=1.000=0=0=1,
363.500=drum0029.jpg=1.000=0=0=1,
363.625=drum0030.jpg=1.000=0=0=1,
363.750=drum0031.jpg=1.000=0=0=1,
363.875=drum0032.jpg=1.000=0=0=1,
364.000=bbb01.jpg=1.000=0=0=1,
364.063=wa.jpg=1.000=0=0=1,
364.125=bbb02.jpg=1.000=0=0=1,
364.188=wa.jpg=1.000=0=0=1,
364.250=bbb03.jpg=1.000=0=0=1,
364.313=wa.jpg=1.000=0=0=1,
364.375=bbb04.jpg=1.000=0=0=1,
364.438=wa.jpg=1.000=0=0=1,
364.500=bbb11.jpg=1.000=0=0=1,
364.563=wa.jpg=1.000=0=0=1,
364.625=bbb12.jpg=1.000=0=0=1,
364.688=wa.jpg=1.000=0=0=1,
364.750=bbb13.jpg=1.000=0=0=1,
364.813=wa.jpg=1.000=0=0=1,
364.875=bbb14.jpg=1.000=0=0=1,
364.938=wa.jpg=1.000=0=0=1,
365.000=bbb21.jpg=1.000=0=0=1,
365.063=wa.jpg=1.000=0=0=1,
365.125=bbb22.jpg=1.000=0=0=1,
365.188=wa.jpg=1.000=0=0=1,
365.250=bbb23.jpg=1.000=0=0=1,
365.313=wa.jpg=1.000=0=0=1,
365.375=bbb24.jpg=1.000=0=0=1,
365.438=wa.jpg=1.000=0=0=1,
365.500=bbb31.jpg=1.000=0=0=1,
365.563=wa.jpg=1.000=0=0=1,
365.625=bbb32.jpg=1.000=0=0=1,
365.688=wa.jpg=1.000=0=0=1,
365.750=bbb33.jpg=1.000=0=0=1,
365.813=wa.jpg=1.000=0=0=1,
365.875=bbb34.jpg=1.000=0=0=1,
365.938=wa.jpg=1.000=0=0=1,
366.000=bbb41.jpg=1.000=0=0=1,
366.063=wa.jpg=1.000=0=0=1,
366.125=bbb42.jpg=1.000=0=0=1,
366.188=wa.jpg=1.000=0=0=1,
366.250=bbb43.jpg=1.000=0=0=1,
366.313=wa.jpg=1.000=0=0=1,
366.375=bbb44.jpg=1.000=0=0=1,
366.438=wa.jpg=1.000=0=0=1,
366.500=bbb21.jpg=1.000=0=0=1,
366.563=wa.jpg=1.000=0=0=1,
366.625=bbb22.jpg=1.000=0=0=1,
366.688=wa.jpg=1.000=0=0=1,
366.750=bbb23.jpg=1.000=0=0=1,
366.813=wa.jpg=1.000=0=0=1,
366.875=bbb24.jpg=1.000=0=0=1,
366.938=wa.jpg=1.000=0=0=1,
367.000=bbb31.jpg=1.000=0=0=1,
367.063=wa.jpg=1.000=0=0=1,
367.125=bbb32.jpg=1.000=0=0=1,
367.188=wa.jpg=1.000=0=0=1,
367.250=bbb33.jpg=1.000=0=0=1,
367.313=wa.jpg=1.000=0=0=1,
367.375=bbb34.jpg=1.000=0=0=1,
367.438=wa.jpg=1.000=0=0=1,
367.500=bbb41.jpg=1.000=0=0=1,
367.563=wa.jpg=1.000=0=0=1,
367.625=bbb42.jpg=1.000=0=0=1,
367.688=wa.jpg=1.000=0=0=1,
367.750=bbb43.jpg=1.000=0=0=1,
367.813=wa.jpg=1.000=0=0=1,
367.875=bbb44.jpg=1.000=0=0=1,
367.938=wa.jpg=1.000=0=0=1,
368.000=xxx0001.jpg=1.000=0=0=1,
368.063=xxx0002.jpg=1.000=0=0=1,
368.125=xxx0003.jpg=1.000=0=0=1,
368.188=xxx0004.jpg=1.000=0=0=1,
368.250=xxx0005.jpg=1.000=0=0=1,
368.313=xxx0006.jpg=1.000=0=0=1,
368.375=xxx0007.jpg=1.000=0=0=1,
368.438=xxx0008.jpg=1.000=0=0=1,
368.500=xxx0009.jpg=1.000=0=0=1,
368.563=xxx0010.jpg=1.000=0=0=1,
368.625=xxx0011.jpg=1.000=0=0=1,
368.688=xxx0012.jpg=1.000=0=0=1,
368.750=xxx0013.jpg=1.000=0=0=1,
368.813=xxx0014.jpg=1.000=0=0=1,
368.875=xxx0015.jpg=1.000=0=0=1,
368.938=xxx0016.jpg=1.000=0=0=1,
369.000=fryu0001.jpg=1.000=0=0=1,
369.063=fryu0002.jpg=1.000=0=0=1,
369.125=fryu0003.jpg=1.000=0=0=1,
369.188=fryu0004.jpg=1.000=0=0=1,
369.250=fryu0005.jpg=1.000=0=0=1,
369.313=fryu0006.jpg=1.000=0=0=1,
369.375=fryu0007.jpg=1.000=0=0=1,
369.438=fryu0008.jpg=1.000=0=0=1,
369.500=fryu0009.jpg=1.000=0=0=1,
369.563=fryu0010.jpg=1.000=0=0=1,
369.625=fryu0011.jpg=1.000=0=0=1,
369.688=fryu0012.jpg=1.000=0=0=1,
369.750=fryu0013.jpg=1.000=0=0=1,
369.813=fryu0014.jpg=1.000=0=0=1,
369.875=fryu0015.jpg=1.000=0=0=1,
369.938=fryu0016.jpg=1.000=0=0=1,
370.000=ria0001.jpg=1.000=0=0=1,
370.063=ria0002.jpg=1.000=0=0=1,
370.125=ria0003.jpg=1.000=0=0=1,
370.188=ria0004.jpg=1.000=0=0=1,
370.250=ria0005.jpg=1.000=0=0=1,
370.313=ria0006.jpg=1.000=0=0=1,
370.375=ria0007.jpg=1.000=0=0=1,
370.438=ria0008.jpg=1.000=0=0=1,
370.500=ria0009.jpg=1.000=0=0=1,
370.563=ria0010.jpg=1.000=0=0=1,
370.625=ria0011.jpg=1.000=0=0=1,
370.688=ria0012.jpg=1.000=0=0=1,
370.750=ria0013.jpg=1.000=0=0=1,
370.813=ria0014.jpg=1.000=0=0=1,
370.875=ria0015.jpg=1.000=0=0=1,
370.938=ria0016.jpg=1.000=0=0=1,
371.000=fryu0017.jpg=1.000=0=0=1,
371.063=fryu0018.jpg=1.000=0=0=1,
371.125=fryu0019.jpg=1.000=0=0=1,
371.188=fryu0020.jpg=1.000=0=0=1,
371.250=fryu0021.jpg=1.000=0=0=1,
371.313=fryu0022.jpg=1.000=0=0=1,
371.375=fryu0023.jpg=1.000=0=0=1,
371.438=fryu0024.jpg=1.000=0=0=1,
371.500=fryu0025.jpg=1.000=0=0=1,
371.563=fryu0026.jpg=1.000=0=0=1,
371.625=fryu0027.jpg=1.000=0=0=1,
371.688=fryu0028.jpg=1.000=0=0=1,
371.750=fryu0029.jpg=1.000=0=0=1,
371.813=fryu0030.jpg=1.000=0=0=1,
371.875=fryu0031.jpg=1.000=0=0=1,
371.938=fryu0032.jpg=1.000=0=0=1,
372.000=zzt0001.jpg=1.000=0=0=1,
372.063=zzt0002.jpg=1.000=0=0=1,
372.125=zzt0003.jpg=1.000=0=0=1,
372.188=zzt0004.jpg=1.000=0=0=1,
372.250=zzt0005.jpg=1.000=0=0=1,
372.313=zzt0006.jpg=1.000=0=0=1,
372.375=zzt0007.jpg=1.000=0=0=1,
372.438=zzt0008.jpg=1.000=0=0=1,
372.500=zzt0009.jpg=1.000=0=0=1,
372.563=zzt0010.jpg=1.000=0=0=1,
372.625=zzt0011.jpg=1.000=0=0=1,
372.688=zzt0012.jpg=1.000=0=0=1,
372.750=zzt0013.jpg=1.000=0=0=1,
372.813=zzt0014.jpg=1.000=0=0=1,
372.875=zzt0015.jpg=1.000=0=0=1,
372.938=zzt0016.jpg=1.000=0=0=1,
373.000=bbb01.jpg=1.000=0=0=1,
373.063=bbb02.jpg=1.000=0=0=1,
373.125=bbb03.jpg=1.000=0=0=1,
373.188=bbb04.jpg=1.000=0=0=1,
373.250=bbb11.jpg=1.000=0=0=1,
373.313=bbb12.jpg=1.000=0=0=1,
373.375=bbb13.jpg=1.000=0=0=1,
373.438=bbb14.jpg=1.000=0=0=1,
373.500=bbb21.jpg=1.000=0=0=1,
373.563=bbb22.jpg=1.000=0=0=1,
373.625=bbb23.jpg=1.000=0=0=1,
373.688=bbb24.jpg=1.000=0=0=1,
373.750=bbb31.jpg=1.000=0=0=1,
373.813=bbb32.jpg=1.000=0=0=1,
373.875=bbb33.jpg=1.000=0=0=1,
373.938=bbb34.jpg=1.000=0=0=1,
374.000=bbb41.jpg=1.000=0=0=1,
374.063=bbb42.jpg=1.000=0=0=1,
374.125=bbb43.jpg=1.000=0=0=1,
374.188=bbb44.jpg=1.000=0=0=1,
374.250=yyy0001.jpg=1.000=0=0=1,
374.313=yyy0002.jpg=1.000=0=0=1,
374.375=yyy0003.jpg=1.000=0=0=1,
374.438=yyy0004.jpg=1.000=0=0=1,
374.500=yyy0005.jpg=1.000=0=0=1,
374.563=yyy0006.jpg=1.000=0=0=1,
374.625=yyy0007.jpg=1.000=0=0=1,
374.688=yyy0008.jpg=1.000=0=0=1,
374.750=yyy0009.jpg=1.000=0=0=1,
374.813=yyy0010.jpg=1.000=0=0=1,
374.875=yyy0011.jpg=1.000=0=0=1,
374.938=yyy0012.jpg=1.000=0=0=1,
375.000=yyy0013.jpg=1.000=0=0=1,
375.063=yyy0014.jpg=1.000=0=0=1,
375.125=yyy0015.jpg=1.000=0=0=1,
375.188=yyy0016.jpg=1.000=0=0=1,
375.250=drum0001.jpg=1.000=0=0=1,
375.313=drum0002.jpg=1.000=0=0=1,
375.375=drum0003.jpg=1.000=0=0=1,
375.438=drum0004.jpg=1.000=0=0=1,
375.500=drum0005.jpg=1.000=0=0=1,
375.563=drum0006.jpg=1.000=0=0=1,
375.625=drum0007.jpg=1.000=0=0=1,
375.688=drum0008.jpg=1.000=0=0=1,
375.750=drum0009.jpg=1.000=0=0=1,
375.813=drum0010.jpg=1.000=0=0=1,
375.875=drum0011.jpg=1.000=0=0=1,
375.938=drum0012.jpg=1.000=0=0=1,
376.000=zzz0001.jpg=1.000=0=0=1,
376.063=zzz0002.jpg=1.000=0=0=1,
376.125=zzz0003.jpg=1.000=0=0=1,
376.188=zzz0004.jpg=1.000=0=0=1,
376.250=zzz0005.jpg=1.000=0=0=1,
376.313=zzz0006.jpg=1.000=0=0=1,
376.375=zzz0007.jpg=1.000=0=0=1,
376.438=zzz0008.jpg=1.000=0=0=1,
376.500=zzz0009.jpg=1.000=0=0=1,
376.563=zzz0010.jpg=1.000=0=0=1,
376.625=zzz0011.jpg=1.000=0=0=1,
376.688=zzz0012.jpg=1.000=0=0=1,
376.750=zzz0013.jpg=1.000=0=0=1,
376.813=zzz0014.jpg=1.000=0=0=1,
376.875=zzz0015.jpg=1.000=0=0=1,
376.938=zzz0016.jpg=1.000=0=0=1,
377.000=drum0013.jpg=1.000=0=0=1,
377.063=drum0014.jpg=1.000=0=0=1,
377.125=drum0015.jpg=1.000=0=0=1,
377.188=drum0016.jpg=1.000=0=0=1,
377.250=drum0017.jpg=1.000=0=0=1,
377.313=drum0018.jpg=1.000=0=0=1,
377.375=drum0019.jpg=1.000=0=0=1,
377.438=drum0020.jpg=1.000=0=0=1,
377.500=drum0021.jpg=1.000=0=0=1,
377.563=drum0022.jpg=1.000=0=0=1,
377.625=drum0023.jpg=1.000=0=0=1,
377.688=drum0024.jpg=1.000=0=0=1,
377.750=drum0025.jpg=1.000=0=0=1,
377.813=drum0026.jpg=1.000=0=0=1,
377.875=drum0027.jpg=1.000=0=0=1,
377.938=drum0028.jpg=1.000=0=0=1,
378.000=ria0001.jpg=1.000=0=0=1,
378.063=ria0002.jpg=1.000=0=0=1,
378.125=ria0003.jpg=1.000=0=0=1,
378.188=ria0004.jpg=1.000=0=0=1,
378.250=ria0005.jpg=1.000=0=0=1,
378.313=ria0006.jpg=1.000=0=0=1,
378.375=ria0007.jpg=1.000=0=0=1,
378.438=ria0008.jpg=1.000=0=0=1,
378.500=ria0009.jpg=1.000=0=0=1,
378.563=ria0010.jpg=1.000=0=0=1,
378.625=ria0011.jpg=1.000=0=0=1,
378.688=ria0012.jpg=1.000=0=0=1,
378.750=ria0013.jpg=1.000=0=0=1,
378.813=ria0014.jpg=1.000=0=0=1,
378.875=ria0015.jpg=1.000=0=0=1,
378.938=ria0016.jpg=1.000=0=0=1,
379.000=drum0029.jpg=1.000=0=0=1,
379.063=drum0030.jpg=1.000=0=0=1,
379.125=drum0031.jpg=1.000=0=0=1,
379.188=drum0032.jpg=1.000=0=0=1,
379.250=bbb01.jpg=1.000=0=0=1,
379.313=bbb02.jpg=1.000=0=0=1,
379.375=bbb03.jpg=1.000=0=0=1,
379.438=bbb04.jpg=1.000=0=0=1,
379.500=bbb21.jpg=1.000=0=0=1,
379.563=bbb22.jpg=1.000=0=0=1,
379.625=bbb23.jpg=1.000=0=0=1,
379.688=bbb24.jpg=1.000=0=0=1,
379.750=bbb11.jpg=1.000=0=0=1,
379.813=bbb12.jpg=1.000=0=0=1,
379.875=bbb13.jpg=1.000=0=0=1,
379.938=bbb14.jpg=1.000=0=0=1,
380.000=xxx0001.jpg=1.000=0=0=1,
380.063=xxx0002.jpg=1.000=0=0=1,
380.125=xxx0003.jpg=1.000=0=0=1,
380.188=xxx0004.jpg=1.000=0=0=1,
380.250=xxx0005.jpg=1.000=0=0=1,
380.313=xxx0006.jpg=1.000=0=0=1,
380.375=xxx0007.jpg=1.000=0=0=1,
380.438=xxx0008.jpg=1.000=0=0=1,
380.500=xxx0009.jpg=1.000=0=0=1,
380.563=xxx0010.jpg=1.000=0=0=1,
380.625=xxx0011.jpg=1.000=0=0=1,
380.688=xxx0012.jpg=1.000=0=0=1,
380.750=xxx0013.jpg=1.000=0=0=1,
380.813=xxx0014.jpg=1.000=0=0=1,
380.875=xxx0015.jpg=1.000=0=0=1,
380.938=xxx0016.jpg=1.000=0=0=1,
381.000=bbb41.jpg=1.000=0=0=1,
381.063=bbb42.jpg=1.000=0=0=1,
381.125=bbb43.jpg=1.000=0=0=1,
381.188=bbb44.jpg=1.000=0=0=1,
381.250=bbb31.jpg=1.000=0=0=1,
381.313=bbb32.jpg=1.000=0=0=1,
381.375=bbb33.jpg=1.000=0=0=1,
381.438=bbb34.jpg=1.000=0=0=1,
381.500=bbb11.jpg=1.000=0=0=1,
381.563=bbb12.jpg=1.000=0=0=1,
381.625=bbb13.jpg=1.000=0=0=1,
381.688=bbb14.jpg=1.000=0=0=1,
381.750=bbb01.jpg=1.000=0=0=1,
381.813=bbb02.jpg=1.000=0=0=1,
381.875=bbb03.jpg=1.000=0=0=1,
381.938=bbb04.jpg=1.000=0=0=1,
382.000=yyy0001.jpg=1.000=0=0=1,
382.063=yyy0002.jpg=1.000=0=0=1,
382.125=yyy0003.jpg=1.000=0=0=1,
382.188=yyy0004.jpg=1.000=0=0=1,
382.250=yyy0005.jpg=1.000=0=0=1,
382.313=yyy0006.jpg=1.000=0=0=1,
382.375=yyy0007.jpg=1.000=0=0=1,
382.438=yyy0008.jpg=1.000=0=0=1,
382.500=yyy0009.jpg=1.000=0=0=1,
382.563=yyy0010.jpg=1.000=0=0=1,
382.625=yyy0011.jpg=1.000=0=0=1,
382.688=yyy0012.jpg=1.000=0=0=1,
382.750=yyy0013.jpg=1.000=0=0=1,
382.813=yyy0014.jpg=1.000=0=0=1,
382.875=yyy0015.jpg=1.000=0=0=1,
382.938=yyy0016.jpg=1.000=0=0=1,
383.000=fryu0001.jpg=1.000=0=0=1,
383.063=fryu0002.jpg=1.000=0=0=1,
383.125=fryu0003.jpg=1.000=0=0=1,
383.188=fryu0004.jpg=1.000=0=0=1,
383.250=fryu0005.jpg=1.000=0=0=1,
383.313=fryu0006.jpg=1.000=0=0=1,
383.375=fryu0007.jpg=1.000=0=0=1,
383.438=fryu0008.jpg=1.000=0=0=1,
383.500=fryu0009.jpg=1.000=0=0=1,
383.563=fryu0010.jpg=1.000=0=0=1,
383.625=fryu0011.jpg=1.000=0=0=1,
383.688=fryu0012.jpg=1.000=0=0=1,
383.750=fryu0013.jpg=1.000=0=0=1,
383.813=fryu0014.jpg=1.000=0=0=1,
383.875=fryu0015.jpg=1.000=0=0=1,
383.938=fryu0016.jpg=1.000=0=0=1,
384.000=zzz0001.jpg=1.000=0=0=1,
384.063=zzz0002.jpg=1.000=0=0=1,
384.125=zzz0003.jpg=1.000=0=0=1,
384.188=zzz0004.jpg=1.000=0=0=1,
384.250=zzz0005.jpg=1.000=0=0=1,
384.313=zzz0006.jpg=1.000=0=0=1,
384.375=zzz0007.jpg=1.000=0=0=1,
384.438=zzz0008.jpg=1.000=0=0=1,
384.500=zzz0009.jpg=1.000=0=0=1,
384.563=zzz0010.jpg=1.000=0=0=1,
384.625=zzz0011.jpg=1.000=0=0=1,
384.688=zzz0012.jpg=1.000=0=0=1,
384.750=zzz0013.jpg=1.000=0=0=1,
384.813=zzz0014.jpg=1.000=0=0=1,
384.875=zzz0015.jpg=1.000=0=0=1,
384.938=zzz0016.jpg=1.000=0=0=1,
385.000=fryu0017.jpg=1.000=0=0=1,
385.063=fryu0018.jpg=1.000=0=0=1,
385.125=fryu0019.jpg=1.000=0=0=1,
385.188=fryu0020.jpg=1.000=0=0=1,
385.250=fryu0021.jpg=1.000=0=0=1,
385.313=fryu0022.jpg=1.000=0=0=1,
385.375=fryu0023.jpg=1.000=0=0=1,
385.438=fryu0024.jpg=1.000=0=0=1,
385.500=fryu0025.jpg=1.000=0=0=1,
385.563=fryu0026.jpg=1.000=0=0=1,
385.625=fryu0027.jpg=1.000=0=0=1,
385.688=fryu0028.jpg=1.000=0=0=1,
385.750=fryu0029.jpg=1.000=0=0=1,
385.813=fryu0030.jpg=1.000=0=0=1,
385.875=fryu0031.jpg=1.000=0=0=1,
385.938=fryu0032.jpg=1.000=0=0=1,
386.000=ria0001.jpg=1.000=0=0=1,
386.063=ria0002.jpg=1.000=0=0=1,
386.125=ria0003.jpg=1.000=0=0=1,
386.188=ria0004.jpg=1.000=0=0=1,
386.250=ria0005.jpg=1.000=0=0=1,
386.313=ria0006.jpg=1.000=0=0=1,
386.375=ria0007.jpg=1.000=0=0=1,
386.438=ria0008.jpg=1.000=0=0=1,
386.500=ria0009.jpg=1.000=0=0=1,
386.563=ria0010.jpg=1.000=0=0=1,
386.625=ria0011.jpg=1.000=0=0=1,
386.688=ria0012.jpg=1.000=0=0=1,
386.750=ria0013.jpg=1.000=0=0=1,
386.813=ria0014.jpg=1.000=0=0=1,
386.875=ria0015.jpg=1.000=0=0=1,
386.938=ria0016.jpg=1.000=0=0=1,
387.000=zzt0001.jpg=1.000=0=0=1,
387.063=zzt0002.jpg=1.000=0=0=1,
387.125=zzt0003.jpg=1.000=0=0=1,
387.188=zzt0004.jpg=1.000=0=0=1,
387.250=zzt0005.jpg=1.000=0=0=1,
387.313=zzt0006.jpg=1.000=0=0=1,
387.375=zzt0007.jpg=1.000=0=0=1,
387.438=zzt0008.jpg=1.000=0=0=1,
387.500=zzt0009.jpg=1.000=0=0=1,
387.563=zzt0010.jpg=1.000=0=0=1,
387.625=zzt0011.jpg=1.000=0=0=1,
387.688=zzt0012.jpg=1.000=0=0=1,
387.750=zzt0013.jpg=1.000=0=0=1,
387.813=zzt0014.jpg=1.000=0=0=1,
387.875=zzt0015.jpg=1.000=0=0=1,
387.938=zzt0016.jpg=1.000=0=0=1,
388.000=bbb21.jpg=1.000=0=0=1,
388.063=bbb22.jpg=1.000=0=0=1,
388.125=bbb23.jpg=1.000=0=0=1,
388.188=bbb24.jpg=1.000=0=0=1,
388.250=bbb01.jpg=1.000=0=0=1,
388.313=bbb02.jpg=1.000=0=0=1,
388.375=bbb03.jpg=1.000=0=0=1,
388.438=bbb04.jpg=1.000=0=0=1,
388.500=bbb41.jpg=1.000=0=0=1,
388.563=bbb42.jpg=1.000=0=0=1,
388.625=bbb43.jpg=1.000=0=0=1,
388.688=bbb44.jpg=1.000=0=0=1,
388.750=bbb11.jpg=1.000=0=0=1,
388.813=bbb12.jpg=1.000=0=0=1,
388.875=bbb13.jpg=1.000=0=0=1,
388.938=bbb14.jpg=1.000=0=0=1,
389.000=drum0001.jpg=1.000=0=0=1,
389.063=drum0002.jpg=1.000=0=0=1,
389.125=drum0003.jpg=1.000=0=0=1,
389.188=drum0004.jpg=1.000=0=0=1,
389.250=drum0005.jpg=1.000=0=0=1,
389.313=drum0006.jpg=1.000=0=0=1,
389.375=drum0007.jpg=1.000=0=0=1,
389.438=drum0008.jpg=1.000=0=0=1,
389.500=drum0009.jpg=1.000=0=0=1,
389.563=drum0010.jpg=1.000=0=0=1,
389.625=drum0011.jpg=1.000=0=0=1,
389.688=drum0012.jpg=1.000=0=0=1,
389.750=drum0013.jpg=1.000=0=0=1,
389.813=drum0014.jpg=1.000=0=0=1,
389.875=drum0015.jpg=1.000=0=0=1,
389.938=drum0016.jpg=1.000=0=0=1,
390.000=yyy0001.jpg=1.000=0=0=1,
390.063=yyy0002.jpg=1.000=0=0=1,
390.125=yyy0003.jpg=1.000=0=0=1,
390.188=yyy0004.jpg=1.000=0=0=1,
390.250=yyy0005.jpg=1.000=0=0=1,
390.313=yyy0006.jpg=1.000=0=0=1,
390.375=yyy0007.jpg=1.000=0=0=1,
390.438=yyy0008.jpg=1.000=0=0=1,
390.500=yyy0009.jpg=1.000=0=0=1,
390.563=yyy0010.jpg=1.000=0=0=1,
390.625=yyy0011.jpg=1.000=0=0=1,
390.688=yyy0012.jpg=1.000=0=0=1,
390.750=yyy0013.jpg=1.000=0=0=1,
390.813=yyy0014.jpg=1.000=0=0=1,
390.875=yyy0015.jpg=1.000=0=0=1,
390.938=yyy0016.jpg=1.000=0=0=1,
391.000=zzz0001.jpg=1.000=0=0=1,
391.063=zzz0002.jpg=1.000=0=0=1,
391.125=zzz0003.jpg=1.000=0=0=1,
391.188=zzz0004.jpg=1.000=0=0=1,
391.250=zzz0005.jpg=1.000=0=0=1,
391.313=zzz0006.jpg=1.000=0=0=1,
391.375=zzz0007.jpg=1.000=0=0=1,
391.438=zzz0008.jpg=1.000=0=0=1,
391.500=zzz0009.jpg=1.000=0=0=1,
391.563=zzz0010.jpg=1.000=0=0=1,
391.625=zzz0011.jpg=1.000=0=0=1,
391.688=zzz0012.jpg=1.000=0=0=1,
391.750=zzz0013.jpg=1.000=0=0=1,
391.813=zzz0014.jpg=1.000=0=0=1,
391.875=zzz0015.jpg=1.000=0=0=1,
391.938=zzz0016.jpg=1.000=0=0=1,
392.000=drum0017.jpg=1.000=0=0=1,
392.063=drum0018.jpg=1.000=0=0=1,
392.125=drum0019.jpg=1.000=0=0=1,
392.188=drum0020.jpg=1.000=0=0=1,
392.250=drum0021.jpg=1.000=0=0=1,
392.313=drum0022.jpg=1.000=0=0=1,
392.375=drum0023.jpg=1.000=0=0=1,
392.438=drum0024.jpg=1.000=0=0=1,
392.500=drum0025.jpg=1.000=0=0=1,
392.563=drum0026.jpg=1.000=0=0=1,
392.625=drum0027.jpg=1.000=0=0=1,
392.688=drum0028.jpg=1.000=0=0=1,
392.750=drum0029.jpg=1.000=0=0=1,
392.813=drum0030.jpg=1.000=0=0=1,
392.875=drum0031.jpg=1.000=0=0=1,
392.938=drum0032.jpg=1.000=0=0=1,
393.000=fryu0001.jpg=1.000=0=0=1,
393.063=fryu0002.jpg=1.000=0=0=1,
393.125=fryu0003.jpg=1.000=0=0=1,
393.188=fryu0004.jpg=1.000=0=0=1,
393.250=fryu0005.jpg=1.000=0=0=1,
393.313=fryu0006.jpg=1.000=0=0=1,
393.375=fryu0007.jpg=1.000=0=0=1,
393.438=fryu0008.jpg=1.000=0=0=1,
393.500=fryu0009.jpg=1.000=0=0=1,
393.563=fryu0010.jpg=1.000=0=0=1,
393.625=fryu0011.jpg=1.000=0=0=1,
393.688=fryu0012.jpg=1.000=0=0=1,
393.750=fryu0013.jpg=1.000=0=0=1,
393.813=fryu0014.jpg=1.000=0=0=1,
393.875=fryu0015.jpg=1.000=0=0=1,
393.938=fryu0016.jpg=1.000=0=0=1,
394.000=xxx0001.jpg=1.000=0=0=1,
394.063=xxx0002.jpg=1.000=0=0=1,
394.125=xxx0003.jpg=1.000=0=0=1,
394.188=xxx0004.jpg=1.000=0=0=1,
394.250=xxx0005.jpg=1.000=0=0=1,
394.313=xxx0006.jpg=1.000=0=0=1,
394.375=xxx0007.jpg=1.000=0=0=1,
394.438=xxx0008.jpg=1.000=0=0=1,
394.500=xxx0009.jpg=1.000=0=0=1,
394.563=xxx0010.jpg=1.000=0=0=1,
394.625=xxx0011.jpg=1.000=0=0=1,
394.688=xxx0012.jpg=1.000=0=0=1,
394.750=xxx0013.jpg=1.000=0=0=1,
394.813=xxx0014.jpg=1.000=0=0=1,
394.875=xxx0015.jpg=1.000=0=0=1,
394.938=xxx0016.jpg=1.000=0=0=1,
395.000=fryu0017.jpg=1.000=0=0=1,
395.063=fryu0018.jpg=1.000=0=0=1,
395.125=fryu0019.jpg=1.000=0=0=1,
395.188=fryu0020.jpg=1.000=0=0=1,
395.250=fryu0021.jpg=1.000=0=0=1,
395.313=fryu0022.jpg=1.000=0=0=1,
395.375=fryu0023.jpg=1.000=0=0=1,
395.438=fryu0024.jpg=1.000=0=0=1,
395.500=fryu0025.jpg=1.000=0=0=1,
395.563=fryu0026.jpg=1.000=0=0=1,
395.625=fryu0027.jpg=1.000=0=0=1,
395.688=fryu0028.jpg=1.000=0=0=1,
395.750=fryu0029.jpg=1.000=0=0=1,
395.813=fryu0030.jpg=1.000=0=0=1,
395.875=fryu0031.jpg=1.000=0=0=1,
395.938=fryu0032.jpg=1.000=0=0=1,
396.000=bbb01.jpg=1.000=0=0=1,
396.063=bbb02.jpg=1.000=0=0=1,
396.125=bbb03.jpg=1.000=0=0=1,
396.188=bbb04.jpg=1.000=0=0=1,
396.250=bbb31.jpg=1.000=0=0=1,
396.313=bbb32.jpg=1.000=0=0=1,
396.375=bbb33.jpg=1.000=0=0=1,
396.438=bbb34.jpg=1.000=0=0=1,
396.500=bbb41.jpg=1.000=0=0=1,
396.563=bbb42.jpg=1.000=0=0=1,
396.625=bbb43.jpg=1.000=0=0=1,
396.688=bbb44.jpg=1.000=0=0=1,
396.750=bbb21.jpg=1.000=0=0=1,
396.813=bbb22.jpg=1.000=0=0=1,
396.875=bbb23.jpg=1.000=0=0=1,
396.938=bbb24.jpg=1.000=0=0=1,
397.000=drum0001.jpg=1.000=0=0=1,
397.063=drum0002.jpg=1.000=0=0=1,
397.125=drum0003.jpg=1.000=0=0=1,
397.188=drum0004.jpg=1.000=0=0=1,
397.250=drum0005.jpg=1.000=0=0=1,
397.313=drum0006.jpg=1.000=0=0=1,
397.375=drum0007.jpg=1.000=0=0=1,
397.438=drum0008.jpg=1.000=0=0=1,
397.500=drum0009.jpg=1.000=0=0=1,
397.563=drum0010.jpg=1.000=0=0=1,
397.625=drum0011.jpg=1.000=0=0=1,
397.688=drum0012.jpg=1.000=0=0=1,
397.750=drum0013.jpg=1.000=0=0=1,
397.813=drum0014.jpg=1.000=0=0=1,
397.875=drum0015.jpg=1.000=0=0=1,
397.938=drum0016.jpg=1.000=0=0=1,
398.000=ria0001.jpg=1.000=0=0=1,
398.063=ria0002.jpg=1.000=0=0=1,
398.125=ria0003.jpg=1.000=0=0=1,
398.188=ria0004.jpg=1.000=0=0=1,
398.250=ria0005.jpg=1.000=0=0=1,
398.313=ria0006.jpg=1.000=0=0=1,
398.375=ria0007.jpg=1.000=0=0=1,
398.438=ria0008.jpg=1.000=0=0=1,
398.500=ria0009.jpg=1.000=0=0=1,
398.563=ria0010.jpg=1.000=0=0=1,
398.625=ria0011.jpg=1.000=0=0=1,
398.688=ria0012.jpg=1.000=0=0=1,
398.750=ria0013.jpg=1.000=0=0=1,
398.813=ria0014.jpg=1.000=0=0=1,
398.875=ria0015.jpg=1.000=0=0=1,
398.938=ria0016.jpg=1.000=0=0=1,
399.000=drum0017.jpg=1.000=0=0=1,
399.063=drum0018.jpg=1.000=0=0=1,
399.125=drum0019.jpg=1.000=0=0=1,
399.188=drum0020.jpg=1.000=0=0=1,
399.250=drum0021.jpg=1.000=0=0=1,
399.313=drum0022.jpg=1.000=0=0=1,
399.375=drum0023.jpg=1.000=0=0=1,
399.438=drum0024.jpg=1.000=0=0=1,
399.500=drum0025.jpg=1.000=0=0=1,
399.563=drum0026.jpg=1.000=0=0=1,
399.625=drum0027.jpg=1.000=0=0=1,
399.688=drum0028.jpg=1.000=0=0=1,
399.750=drum0029.jpg=1.000=0=0=1,
399.813=drum0030.jpg=1.000=0=0=1,
399.875=drum0031.jpg=1.000=0=0=1,
399.938=drum0032.jpg=1.000=0=0=1,
400.000=fryu0032.jpg=1.000=0=0=1,
400.063=xxx0001.jpg=1.000=0=0=1,
400.125=fryu0031.jpg=1.000=0=0=1,
400.188=xxx0002.jpg=1.000=0=0=1,
400.250=fryu0030.jpg=1.000=0=0=1,
400.313=xxx0003.jpg=1.000=0=0=1,
400.375=fryu0029.jpg=1.000=0=0=1,
400.438=xxx0004.jpg=1.000=0=0=1,
400.500=fryu0028.jpg=1.000=0=0=1,
400.563=xxx0005.jpg=1.000=0=0=1,
400.625=fryu0027.jpg=1.000=0=0=1,
400.688=xxx0006.jpg=1.000=0=0=1,
400.750=fryu0026.jpg=1.000=0=0=1,
400.813=xxx0007.jpg=1.000=0=0=1,
400.875=fryu0025.jpg=1.000=0=0=1,
400.938=xxx0008.jpg=1.000=0=0=1,
401.000=fryu0024.jpg=1.000=0=0=1,
401.063=xxx0009.jpg=1.000=0=0=1,
401.125=fryu0023.jpg=1.000=0=0=1,
401.188=xxx0010.jpg=1.000=0=0=1,
401.250=fryu0022.jpg=1.000=0=0=1,
401.313=xxx0011.jpg=1.000=0=0=1,
401.375=fryu0021.jpg=1.000=0=0=1,
401.438=xxx0012.jpg=1.000=0=0=1,
401.500=fryu0020.jpg=1.000=0=0=1,
401.563=xxx0013.jpg=1.000=0=0=1,
401.625=fryu0019.jpg=1.000=0=0=1,
401.688=xxx0014.jpg=1.000=0=0=1,
401.750=fryu0018.jpg=1.000=0=0=1,
401.813=xxx0015.jpg=1.000=0=0=1,
401.875=fryu0017.jpg=1.000=0=0=1,
401.938=xxx0016.jpg=1.000=0=0=1,
402.000=fryu0016.jpg=1.000=0=0=1,
402.063=yyy0001.jpg=1.000=0=0=1,
402.125=fryu0015.jpg=1.000=0=0=1,
402.188=yyy0002.jpg=1.000=0=0=1,
402.250=fryu0014.jpg=1.000=0=0=1,
402.313=yyy0003.jpg=1.000=0=0=1,
402.375=fryu0013.jpg=1.000=0=0=1,
402.438=yyy0004.jpg=1.000=0=0=1,
402.500=fryu0012.jpg=1.000=0=0=1,
402.563=yyy0005.jpg=1.000=0=0=1,
402.625=fryu0011.jpg=1.000=0=0=1,
402.688=yyy0006.jpg=1.000=0=0=1,
402.750=fryu0010.jpg=1.000=0=0=1,
402.813=yyy0007.jpg=1.000=0=0=1,
402.875=fryu0009.jpg=1.000=0=0=1,
402.938=yyy0008.jpg=1.000=0=0=1,
403.000=fryu0008.jpg=1.000=0=0=1,
403.063=yyy0009.jpg=1.000=0=0=1,
403.125=fryu0007.jpg=1.000=0=0=1,
403.188=yyy0010.jpg=1.000=0=0=1,
403.250=fryu0006.jpg=1.000=0=0=1,
403.313=yyy0011.jpg=1.000=0=0=1,
403.375=fryu0005.jpg=1.000=0=0=1,
403.438=yyy0012.jpg=1.000=0=0=1,
403.500=fryu0004.jpg=1.000=0=0=1,
403.563=yyy0013.jpg=1.000=0=0=1,
403.625=fryu0003.jpg=1.000=0=0=1,
403.688=yyy0014.jpg=1.000=0=0=1,
403.750=fryu0002.jpg=1.000=0=0=1,
403.813=yyy0015.jpg=1.000=0=0=1,
403.875=fryu0001.jpg=1.000=0=0=1,
403.938=yyy0016.jpg=1.000=0=0=1,
404.000=fryu0032.jpg=1.000=0=0=1,
404.063=bbb01.jpg=1.000=0=0=1,
404.125=fryu0031.jpg=1.000=0=0=1,
404.188=bbb02.jpg=1.000=0=0=1,
404.250=fryu0030.jpg=1.000=0=0=1,
404.313=bbb03.jpg=1.000=0=0=1,
404.375=fryu0029.jpg=1.000=0=0=1,
404.438=bbb04.jpg=1.000=0=0=1,
404.500=fryu0028.jpg=1.000=0=0=1,
404.563=bbb11.jpg=1.000=0=0=1,
404.625=fryu0027.jpg=1.000=0=0=1,
404.688=bbb12.jpg=1.000=0=0=1,
404.750=fryu0026.jpg=1.000=0=0=1,
404.813=bbb13.jpg=1.000=0=0=1,
404.875=fryu0025.jpg=1.000=0=0=1,
404.938=bbb14.jpg=1.000=0=0=1,
405.000=fryu0024.jpg=1.000=0=0=1,
405.063=bbb21.jpg=1.000=0=0=1,
405.125=fryu0023.jpg=1.000=0=0=1,
405.188=bbb22.jpg=1.000=0=0=1,
405.250=fryu0022.jpg=1.000=0=0=1,
405.313=bbb23.jpg=1.000=0=0=1,
405.375=fryu0021.jpg=1.000=0=0=1,
405.438=bbb24.jpg=1.000=0=0=1,
405.500=fryu0020.jpg=1.000=0=0=1,
405.563=bbb31.jpg=1.000=0=0=1,
405.625=fryu0019.jpg=1.000=0=0=1,
405.688=bbb32.jpg=1.000=0=0=1,
405.750=fryu0018.jpg=1.000=0=0=1,
405.813=bbb33.jpg=1.000=0=0=1,
405.875=fryu0017.jpg=1.000=0=0=1,
405.938=bbb34.jpg=1.000=0=0=1,
406.000=fryu0016.jpg=1.000=0=0=1,
406.063=bbb41.jpg=1.000=0=0=1,
406.125=fryu0015.jpg=1.000=0=0=1,
406.188=bbb42.jpg=1.000=0=0=1,
406.250=fryu0014.jpg=1.000=0=0=1,
406.313=bbb43.jpg=1.000=0=0=1,
406.375=fryu0013.jpg=1.000=0=0=1,
406.438=bbb44.jpg=1.000=0=0=1,
406.500=fryu0012.jpg=1.000=0=0=1,
406.563=zzz0001.jpg=1.000=0=0=1,
406.625=fryu0011.jpg=1.000=0=0=1,
406.688=zzz0002.jpg=1.000=0=0=1,
406.750=fryu0010.jpg=1.000=0=0=1,
406.813=zzz0003.jpg=1.000=0=0=1,
406.875=fryu0009.jpg=1.000=0=0=1,
406.938=zzz0004.jpg=1.000=0=0=1,
407.000=fryu0008.jpg=1.000=0=0=1,
407.063=zzz0005.jpg=1.000=0=0=1,
407.125=fryu0007.jpg=1.000=0=0=1,
407.188=zzz0006.jpg=1.000=0=0=1,
407.250=fryu0006.jpg=1.000=0=0=1,
407.313=zzz0007.jpg=1.000=0=0=1,
407.375=fryu0005.jpg=1.000=0=0=1,
407.438=zzz0008.jpg=1.000=0=0=1,
407.500=fryu0004.jpg=1.000=0=0=1,
407.563=zzz0009.jpg=1.000=0=0=1,
407.625=fryu0003.jpg=1.000=0=0=1,
407.688=zzz0010.jpg=1.000=0=0=1,
407.750=fryu0002.jpg=1.000=0=0=1,
407.813=zzz0011.jpg=1.000=0=0=1,
407.875=fryu0001.jpg=1.000=0=0=1,
407.938=zzz0012.jpg=1.000=0=0=1,
408.000=fryu0032.jpg=1.000=0=0=1,
408.063=zzz0013.jpg=1.000=0=0=1,
408.125=fryu0031.jpg=1.000=0=0=1,
408.188=zzz0014.jpg=1.000=0=0=1,
408.250=fryu0030.jpg=1.000=0=0=1,
408.313=zzz0015.jpg=1.000=0=0=1,
408.375=fryu0029.jpg=1.000=0=0=1,
408.438=zzz0016.jpg=1.000=0=0=1,
408.500=fryu0028.jpg=1.000=0=0=1,
408.563=zzt0001.jpg=1.000=0=0=1,
408.625=fryu0027.jpg=1.000=0=0=1,
408.688=zzt0002.jpg=1.000=0=0=1,
408.750=fryu0026.jpg=1.000=0=0=1,
408.813=zzt0003.jpg=1.000=0=0=1,
408.875=fryu0025.jpg=1.000=0=0=1,
408.938=zzt0004.jpg=1.000=0=0=1,
409.000=fryu0024.jpg=1.000=0=0=1,
409.063=zzt0005.jpg=1.000=0=0=1,
409.125=fryu0023.jpg=1.000=0=0=1,
409.188=zzt0006.jpg=1.000=0=0=1,
409.250=fryu0022.jpg=1.000=0=0=1,
409.313=zzt0007.jpg=1.000=0=0=1,
409.375=fryu0021.jpg=1.000=0=0=1,
409.438=zzt0008.jpg=1.000=0=0=1,
409.500=fryu0020.jpg=1.000=0=0=1,
409.563=zzt0009.jpg=1.000=0=0=1,
409.625=fryu0019.jpg=1.000=0=0=1,
409.688=zzt0010.jpg=1.000=0=0=1,
409.750=fryu0018.jpg=1.000=0=0=1,
409.813=zzt0011.jpg=1.000=0=0=1,
409.875=fryu0017.jpg=1.000=0=0=1,
409.938=zzt0012.jpg=1.000=0=0=1,
410.000=fryu0016.jpg=1.000=0=0=1,
410.063=zzt0013.jpg=1.000=0=0=1,
410.125=fryu0015.jpg=1.000=0=0=1,
410.188=zzt0014.jpg=1.000=0=0=1,
410.250=fryu0014.jpg=1.000=0=0=1,
410.313=zzt0015.jpg=1.000=0=0=1,
410.375=fryu0013.jpg=1.000=0=0=1,
410.438=zzt0016.jpg=1.000=0=0=1,
410.500=fryu0012.jpg=1.000=0=0=1,
410.563=ria0001.jpg=1.000=0=0=1,
410.625=fryu0011.jpg=1.000=0=0=1,
410.688=ria0002.jpg=1.000=0=0=1,
410.750=fryu0010.jpg=1.000=0=0=1,
410.813=ria0003.jpg=1.000=0=0=1,
410.875=fryu0009.jpg=1.000=0=0=1,
410.938=ria0004.jpg=1.000=0=0=1,
411.000=fryu0008.jpg=1.000=0=0=1,
411.063=ria0005.jpg=1.000=0=0=1,
411.125=fryu0007.jpg=1.000=0=0=1,
411.188=ria0006.jpg=1.000=0=0=1,
411.250=fryu0006.jpg=1.000=0=0=1,
411.313=ria0007.jpg=1.000=0=0=1,
411.375=fryu0005.jpg=1.000=0=0=1,
411.438=ria0008.jpg=1.000=0=0=1,
411.500=fryu0004.jpg=1.000=0=0=1,
411.563=ria0009.jpg=1.000=0=0=1,
411.625=fryu0003.jpg=1.000=0=0=1,
411.688=ria0010.jpg=1.000=0=0=1,
411.750=fryu0002.jpg=1.000=0=0=1,
411.813=ria0011.jpg=1.000=0=0=1,
411.875=fryu0001.jpg=1.000=0=0=1,
411.938=ria0012.jpg=1.000=0=0=1,
412.000=fryu0032.jpg=1.000=0=0=1,
412.063=ria0013.jpg=1.000=0=0=1,
412.125=fryu0031.jpg=1.000=0=0=1,
412.188=ria0014.jpg=1.000=0=0=1,
412.250=fryu0030.jpg=1.000=0=0=1,
412.313=ria0015.jpg=1.000=0=0=1,
412.375=fryu0029.jpg=1.000=0=0=1,
412.438=ria0016.jpg=1.000=0=0=1,
412.500=fryu0028.jpg=1.000=0=0=1,
412.563=yyy0001.jpg=1.000=0=0=1,
412.625=fryu0027.jpg=1.000=0=0=1,
412.688=yyy0002.jpg=1.000=0=0=1,
412.750=fryu0026.jpg=1.000=0=0=1,
412.813=yyy0003.jpg=1.000=0=0=1,
412.875=fryu0025.jpg=1.000=0=0=1,
412.938=yyy0004.jpg=1.000=0=0=1,
413.000=fryu0024.jpg=1.000=0=0=1,
413.063=yyy0005.jpg=1.000=0=0=1,
413.125=fryu0023.jpg=1.000=0=0=1,
413.188=yyy0006.jpg=1.000=0=0=1,
413.250=fryu0022.jpg=1.000=0=0=1,
413.313=yyy0007.jpg=1.000=0=0=1,
413.375=fryu0021.jpg=1.000=0=0=1,
413.438=yyy0008.jpg=1.000=0=0=1,
413.500=fryu0020.jpg=1.000=0=0=1,
413.563=yyy0009.jpg=1.000=0=0=1,
413.625=fryu0019.jpg=1.000=0=0=1,
413.688=yyy0010.jpg=1.000=0=0=1,
413.750=fryu0018.jpg=1.000=0=0=1,
413.813=yyy0011.jpg=1.000=0=0=1,
413.875=fryu0017.jpg=1.000=0=0=1,
413.938=yyy0012.jpg=1.000=0=0=1,
414.000=fryu0016.jpg=1.000=0=0=1,
414.063=yyy0013.jpg=1.000=0=0=1,
414.125=fryu0015.jpg=1.000=0=0=1,
414.188=yyy0014.jpg=1.000=0=0=1,
414.250=fryu0014.jpg=1.000=0=0=1,
414.313=yyy0015.jpg=1.000=0=0=1,
414.375=fryu0013.jpg=1.000=0=0=1,
414.438=yyy0016.jpg=1.000=0=0=1,
414.500=fryu0012.jpg=1.000=0=0=1,
414.563=zzt0001.jpg=1.000=0=0=1,
414.625=fryu0011.jpg=1.000=0=0=1,
414.688=zzt0002.jpg=1.000=0=0=1,
414.750=fryu0010.jpg=1.000=0=0=1,
414.813=zzt0003.jpg=1.000=0=0=1,
414.875=fryu0009.jpg=1.000=0=0=1,
414.938=zzt0004.jpg=1.000=0=0=1,
415.000=fryu0008.jpg=1.000=0=0=1,
415.063=zzt0005.jpg=1.000=0=0=1,
415.125=fryu0007.jpg=1.000=0=0=1,
415.188=zzt0006.jpg=1.000=0=0=1,
415.250=fryu0006.jpg=1.000=0=0=1,
415.313=zzt0007.jpg=1.000=0=0=1,
415.375=fryu0005.jpg=1.000=0=0=1,
415.438=zzt0008.jpg=1.000=0=0=1,
415.500=fryu0004.jpg=1.000=0=0=1,
415.563=zzt0009.jpg=1.000=0=0=1,
415.625=fryu0003.jpg=1.000=0=0=1,
415.688=zzt0010.jpg=1.000=0=0=1,
415.750=fryu0002.jpg=1.000=0=0=1,
415.813=zzt0011.jpg=1.000=0=0=1,
415.875=fryu0001.jpg=1.000=0=0=1,
415.938=zzt0012.jpg=1.000=0=0=1,
416.000=fryu0032.jpg=1.000=0=0=1,
416.063=zzt0013.jpg=1.000=0=0=1,
416.125=fryu0031.jpg=1.000=0=0=1,
416.188=zzt0014.jpg=1.000=0=0=1,
416.250=fryu0030.jpg=1.000=0=0=1,
416.313=zzt0015.jpg=1.000=0=0=1,
416.375=fryu0029.jpg=1.000=0=0=1,
416.438=zzt0016.jpg=1.000=0=0=1,
416.500=fryu0028.jpg=1.000=0=0=1,
416.563=xxx0001.jpg=1.000=0=0=1,
416.625=fryu0027.jpg=1.000=0=0=1,
416.688=xxx0002.jpg=1.000=0=0=1,
416.750=fryu0026.jpg=1.000=0=0=1,
416.813=xxx0003.jpg=1.000=0=0=1,
416.875=fryu0025.jpg=1.000=0=0=1,
416.938=xxx0004.jpg=1.000=0=0=1,
417.000=fryu0024.jpg=1.000=0=0=1,
417.063=xxx0005.jpg=1.000=0=0=1,
417.125=fryu0023.jpg=1.000=0=0=1,
417.188=xxx0006.jpg=1.000=0=0=1,
417.250=fryu0022.jpg=1.000=0=0=1,
417.313=xxx0007.jpg=1.000=0=0=1,
417.375=fryu0021.jpg=1.000=0=0=1,
417.438=xxx0008.jpg=1.000=0=0=1,
417.500=fryu0020.jpg=1.000=0=0=1,
417.563=xxx0009.jpg=1.000=0=0=1,
417.625=fryu0019.jpg=1.000=0=0=1,
417.688=xxx0010.jpg=1.000=0=0=1,
417.750=fryu0018.jpg=1.000=0=0=1,
417.813=xxx0011.jpg=1.000=0=0=1,
417.875=fryu0017.jpg=1.000=0=0=1,
417.938=xxx0012.jpg=1.000=0=0=1,
418.000=fryu0016.jpg=1.000=0=0=1,
418.063=xxx0013.jpg=1.000=0=0=1,
418.125=fryu0015.jpg=1.000=0=0=1,
418.188=xxx0014.jpg=1.000=0=0=1,
418.250=fryu0014.jpg=1.000=0=0=1,
418.313=xxx0015.jpg=1.000=0=0=1,
418.375=fryu0013.jpg=1.000=0=0=1,
418.438=xxx0016.jpg=1.000=0=0=1,
418.500=fryu0012.jpg=1.000=0=0=1,
418.563=bbb01.jpg=1.000=0=0=1,
418.625=fryu0011.jpg=1.000=0=0=1,
418.688=bbb02.jpg=1.000=0=0=1,
418.750=fryu0010.jpg=1.000=0=0=1,
418.813=bbb03.jpg=1.000=0=0=1,
418.875=fryu0009.jpg=1.000=0=0=1,
418.938=bbb04.jpg=1.000=0=0=1,
419.000=fryu0008.jpg=1.000=0=0=1,
419.063=bbb21.jpg=1.000=0=0=1,
419.125=fryu0007.jpg=1.000=0=0=1,
419.188=bbb22.jpg=1.000=0=0=1,
419.250=fryu0006.jpg=1.000=0=0=1,
419.313=bbb23.jpg=1.000=0=0=1,
419.375=fryu0005.jpg=1.000=0=0=1,
419.438=bbb24.jpg=1.000=0=0=1,
419.500=fryu0004.jpg=1.000=0=0=1,
419.563=bbb11.jpg=1.000=0=0=1,
419.625=fryu0003.jpg=1.000=0=0=1,
419.688=bbb12.jpg=1.000=0=0=1,
419.750=fryu0002.jpg=1.000=0=0=1,
419.813=bbb13.jpg=1.000=0=0=1,
419.875=fryu0001.jpg=1.000=0=0=1,
419.938=bbb14.jpg=1.000=0=0=1,
420.000=fryu0032.jpg=1.000=0=0=1,
420.063=bbb41.jpg=1.000=0=0=1,
420.125=fryu0031.jpg=1.000=0=0=1,
420.188=bbb42.jpg=1.000=0=0=1,
420.250=fryu0030.jpg=1.000=0=0=1,
420.313=bbb43.jpg=1.000=0=0=1,
420.375=fryu0029.jpg=1.000=0=0=1,
420.438=bbb44.jpg=1.000=0=0=1,
420.500=fryu0028.jpg=1.000=0=0=1,
420.563=bbb31.jpg=1.000=0=0=1,
420.625=fryu0027.jpg=1.000=0=0=1,
420.688=bbb32.jpg=1.000=0=0=1,
420.750=fryu0026.jpg=1.000=0=0=1,
420.813=bbb33.jpg=1.000=0=0=1,
420.875=fryu0025.jpg=1.000=0=0=1,
420.938=bbb34.jpg=1.000=0=0=1,
421.000=fryu0024.jpg=1.000=0=0=1,
421.063=ria0001.jpg=1.000=0=0=1,
421.125=fryu0023.jpg=1.000=0=0=1,
421.188=ria0002.jpg=1.000=0=0=1,
421.250=fryu0022.jpg=1.000=0=0=1,
421.313=ria0003.jpg=1.000=0=0=1,
421.375=fryu0021.jpg=1.000=0=0=1,
421.438=ria0004.jpg=1.000=0=0=1,
421.500=fryu0020.jpg=1.000=0=0=1,
421.563=ria0005.jpg=1.000=0=0=1,
421.625=fryu0019.jpg=1.000=0=0=1,
421.688=ria0006.jpg=1.000=0=0=1,
421.750=fryu0018.jpg=1.000=0=0=1,
421.813=ria0007.jpg=1.000=0=0=1,
421.875=fryu0017.jpg=1.000=0=0=1,
421.938=ria0008.jpg=1.000=0=0=1,
422.000=fryu0016.jpg=1.000=0=0=1,
422.063=ria0009.jpg=1.000=0=0=1,
422.125=fryu0015.jpg=1.000=0=0=1,
422.188=ria0010.jpg=1.000=0=0=1,
422.250=fryu0014.jpg=1.000=0=0=1,
422.313=ria0011.jpg=1.000=0=0=1,
422.375=fryu0013.jpg=1.000=0=0=1,
422.438=ria0012.jpg=1.000=0=0=1,
422.500=fryu0012.jpg=1.000=0=0=1,
422.563=ria0013.jpg=1.000=0=0=1,
422.625=fryu0011.jpg=1.000=0=0=1,
422.688=ria0014.jpg=1.000=0=0=1,
422.750=fryu0010.jpg=1.000=0=0=1,
422.813=ria0015.jpg=1.000=0=0=1,
422.875=fryu0009.jpg=1.000=0=0=1,
422.938=ria0016.jpg=1.000=0=0=1,
423.000=fryu0008.jpg=1.000=0=0=1,
423.063=zzz0001.jpg=1.000=0=0=1,
423.125=fryu0007.jpg=1.000=0=0=1,
423.188=zzz0002.jpg=1.000=0=0=1,
423.250=fryu0006.jpg=1.000=0=0=1,
423.313=zzz0003.jpg=1.000=0=0=1,
423.375=fryu0005.jpg=1.000=0=0=1,
423.438=zzz0004.jpg=1.000=0=0=1,
423.500=fryu0004.jpg=1.000=0=0=1,
423.563=zzz0005.jpg=1.000=0=0=1,
423.625=fryu0003.jpg=1.000=0=0=1,
423.688=zzz0006.jpg=1.000=0=0=1,
423.750=fryu0002.jpg=1.000=0=0=1,
423.813=zzz0007.jpg=1.000=0=0=1,
423.875=fryu0001.jpg=1.000=0=0=1,
423.938=zzz0008.jpg=1.000=0=0=1,
424.000=fryu0032.jpg=1.000=0=0=1,
424.063=zzz0009.jpg=1.000=0=0=1,
424.125=fryu0031.jpg=1.000=0=0=1,
424.188=zzz0010.jpg=1.000=0=0=1,
424.250=fryu0030.jpg=1.000=0=0=1,
424.313=zzz0011.jpg=1.000=0=0=1,
424.375=fryu0029.jpg=1.000=0=0=1,
424.438=zzz0012.jpg=1.000=0=0=1,
424.500=fryu0028.jpg=1.000=0=0=1,
424.563=zzz0013.jpg=1.000=0=0=1,
424.625=fryu0027.jpg=1.000=0=0=1,
424.688=zzz0014.jpg=1.000=0=0=1,
424.750=fryu0026.jpg=1.000=0=0=1,
424.813=zzz0015.jpg=1.000=0=0=1,
424.875=fryu0025.jpg=1.000=0=0=1,
424.938=zzz0016.jpg=1.000=0=0=1,
425.000=fryu0024.jpg=1.000=0=0=1,
425.063=zzt0001.jpg=1.000=0=0=1,
425.125=fryu0023.jpg=1.000=0=0=1,
425.188=zzt0002.jpg=1.000=0=0=1,
425.250=fryu0022.jpg=1.000=0=0=1,
425.313=zzt0003.jpg=1.000=0=0=1,
425.375=fryu0021.jpg=1.000=0=0=1,
425.438=zzt0004.jpg=1.000=0=0=1,
425.500=fryu0020.jpg=1.000=0=0=1,
425.563=zzt0005.jpg=1.000=0=0=1,
425.625=fryu0019.jpg=1.000=0=0=1,
425.688=zzt0006.jpg=1.000=0=0=1,
425.750=fryu0018.jpg=1.000=0=0=1,
425.813=zzt0007.jpg=1.000=0=0=1,
425.875=fryu0017.jpg=1.000=0=0=1,
425.938=zzt0008.jpg=1.000=0=0=1,
426.000=fryu0016.jpg=1.000=0=0=1,
426.063=zzt0009.jpg=1.000=0=0=1,
426.125=fryu0015.jpg=1.000=0=0=1,
426.188=zzt0010.jpg=1.000=0=0=1,
426.250=fryu0014.jpg=1.000=0=0=1,
426.313=zzt0011.jpg=1.000=0=0=1,
426.375=fryu0013.jpg=1.000=0=0=1,
426.438=zzt0012.jpg=1.000=0=0=1,
426.500=fryu0012.jpg=1.000=0=0=1,
426.563=zzt0013.jpg=1.000=0=0=1,
426.625=fryu0011.jpg=1.000=0=0=1,
426.688=zzt0014.jpg=1.000=0=0=1,
426.750=fryu0010.jpg=1.000=0=0=1,
426.813=zzt0015.jpg=1.000=0=0=1,
426.875=fryu0009.jpg=1.000=0=0=1,
426.938=zzt0016.jpg=1.000=0=0=1,
427.000=fryu0008.jpg=1.000=0=0=1,
427.063=bbb41.jpg=1.000=0=0=1,
427.125=fryu0007.jpg=1.000=0=0=1,
427.188=bbb42.jpg=1.000=0=0=1,
427.250=fryu0006.jpg=1.000=0=0=1,
427.313=bbb43.jpg=1.000=0=0=1,
427.375=fryu0005.jpg=1.000=0=0=1,
427.438=bbb44.jpg=1.000=0=0=1,
427.500=fryu0004.jpg=1.000=0=0=1,
427.563=bbb21.jpg=1.000=0=0=1,
427.625=fryu0003.jpg=1.000=0=0=1,
427.688=bbb22.jpg=1.000=0=0=1,
427.750=fryu0002.jpg=1.000=0=0=1,
427.813=bbb23.jpg=1.000=0=0=1,
427.875=fryu0001.jpg=1.000=0=0=1,
427.938=bbb24.jpg=1.000=0=0=1,
428.000=fryu0032.jpg=1.000=0=0=1,
428.063=xxx0001.jpg=1.000=0=0=1,
428.125=fryu0031.jpg=1.000=0=0=1,
428.188=xxx0002.jpg=1.000=0=0=1,
428.250=fryu0030.jpg=1.000=0=0=1,
428.313=xxx0003.jpg=1.000=0=0=1,
428.375=fryu0029.jpg=1.000=0=0=1,
428.438=xxx0004.jpg=1.000=0=0=1,
428.500=fryu0028.jpg=1.000=0=0=1,
428.563=xxx0005.jpg=1.000=0=0=1,
428.625=fryu0027.jpg=1.000=0=0=1,
428.688=xxx0006.jpg=1.000=0=0=1,
428.750=fryu0026.jpg=1.000=0=0=1,
428.813=xxx0007.jpg=1.000=0=0=1,
428.875=fryu0025.jpg=1.000=0=0=1,
428.938=xxx0008.jpg=1.000=0=0=1,
429.000=fryu0024.jpg=1.000=0=0=1,
429.063=xxx0009.jpg=1.000=0=0=1,
429.125=fryu0023.jpg=1.000=0=0=1,
429.188=xxx0010.jpg=1.000=0=0=1,
429.250=fryu0022.jpg=1.000=0=0=1,
429.313=xxx0011.jpg=1.000=0=0=1,
429.375=fryu0021.jpg=1.000=0=0=1,
429.438=xxx0012.jpg=1.000=0=0=1,
429.500=fryu0020.jpg=1.000=0=0=1,
429.563=xxx0013.jpg=1.000=0=0=1,
429.625=fryu0019.jpg=1.000=0=0=1,
429.688=xxx0014.jpg=1.000=0=0=1,
429.750=fryu0018.jpg=1.000=0=0=1,
429.813=xxx0015.jpg=1.000=0=0=1,
429.875=fryu0017.jpg=1.000=0=0=1,
429.938=xxx0016.jpg=1.000=0=0=1,
430.000=fryu0016.jpg=1.000=0=0=1,
430.063=yyy0001.jpg=1.000=0=0=1,
430.125=fryu0015.jpg=1.000=0=0=1,
430.188=yyy0002.jpg=1.000=0=0=1,
430.250=fryu0014.jpg=1.000=0=0=1,
430.313=yyy0003.jpg=1.000=0=0=1,
430.375=fryu0013.jpg=1.000=0=0=1,
430.438=yyy0004.jpg=1.000=0=0=1,
430.500=fryu0012.jpg=1.000=0=0=1,
430.563=yyy0005.jpg=1.000=0=0=1,
430.625=fryu0011.jpg=1.000=0=0=1,
430.688=yyy0006.jpg=1.000=0=0=1,
430.750=fryu0010.jpg=1.000=0=0=1,
430.813=yyy0007.jpg=1.000=0=0=1,
430.875=fryu0009.jpg=1.000=0=0=1,
430.938=yyy0008.jpg=1.000=0=0=1,
431.000=fryu0008.jpg=1.000=0=0=1,
431.063=yyy0009.jpg=1.000=0=0=1,
431.125=fryu0007.jpg=1.000=0=0=1,
431.188=yyy0010.jpg=1.000=0=0=1,
431.250=fryu0006.jpg=1.000=0=0=1,
431.313=yyy0011.jpg=1.000=0=0=1,
431.375=fryu0005.jpg=1.000=0=0=1,
431.438=yyy0012.jpg=1.000=0=0=1,
431.500=fryu0004.jpg=1.000=0=0=1,
431.563=yyy0013.jpg=1.000=0=0=1,
431.625=fryu0003.jpg=1.000=0=0=1,
431.688=yyy0014.jpg=1.000=0=0=1,
431.750=fryu0002.jpg=1.000=0=0=1,
431.813=yyy0015.jpg=1.000=0=0=1,
431.875=fryu0001.jpg=1.000=0=0=1,
431.938=yyy0016.jpg=1.000=0=0=1,
432.000=ending0001.jpg=1.000=0=0=1,
432.125=ending0002.jpg=1.000=0=0=1,
432.250=ending0003.jpg=1.000=0=0=1,
432.375=ending0004.jpg=1.000=0=0=1,
432.500=ending0005.jpg=1.000=0=0=1,
432.625=ending0006.jpg=1.000=0=0=1,
432.750=ending0007.jpg=1.000=0=0=1,
432.875=ending0008.jpg=1.000=0=0=1,
433.000=ending0009.jpg=1.000=0=0=1,
433.125=ending0010.jpg=1.000=0=0=1,
433.250=ending0011.jpg=1.000=0=0=1,
433.375=ending0012.jpg=1.000=0=0=1,
433.500=ending0013.jpg=1.000=0=0=1,
433.625=ending0014.jpg=1.000=0=0=1,
433.750=ending0015.jpg=1.000=0=0=1,
433.875=ending0016.jpg=1.000=0=0=1,
434.000=ending0017.jpg=1.000=0=0=1,
434.125=ending0018.jpg=1.000=0=0=1,
434.250=ending0019.jpg=1.000=0=0=1,
434.375=ending0020.jpg=1.000=0=0=1,
435.000=Air-bg.PNG=1.000=1=0=1,
99999=-nosongbg-=1.000=0=0=0 // don't automatically add -songbackground-
;
// cache tags:
#FIRSTBEAT:3.000;
#LASTBEAT:499.875;
#SONGFILENAME:Songs/sdo pack 6/AIR/Air.sm;
#HASMUSIC:1;
#HASBANNER:1;
#MUSICLENGTH:167.992;
// end cache tags

//---------------dance-single - ----------------
#NOTES:
     dance-single:
     :
     Easy:
     10:
     0.798,0.836,0.476,0.125,0.476,837.000,80.000,21.000,0.000,0.000:
0000
0000
0000
0000
,
0000
0000
0000
0000
,
0000
0000
0000
0000
,
0000
0000
0000
0000
,
0001
0000
0100
0000
0010
0000
1000
0000
0100
0000
0000
0100
0000
0000
0100
0000
,
1000
0000
0100
0000
0010
0000
0001
0000
0010
0000
0000
0010
0000
0000
0010
0000
,
0001
0000
1000
0000
0001
0000
0100
0000
0001
0000
0000
0001
0000
0000
0001
0000
,
0010
0000
0001
0000
0010
0000
0100
0000
1000
0000
0000
1000
0000
0000
1000
0000
,
0100
0000
1000
0000
0010
0000
0001
0000
0110
0000
0000
0101
0000
0000
1100
0000
,
0001
0000
1000
0000
0001
0000
1000
0000
0101
0000
0000
0101
0000
0000
0101
0000
,
0100
0000
0010
0000
1000
0000
0100
0000
0011
0000
0000
0011
0000
0000
1001
0000
,
0101
0000
0000
0101
0000
0000
0101
0000
1100
0000
0000
1100
0000
0000
1100
0000
,
1010
0100
0010
0100
0001
0010
0001
0010
,
1100
0010
0100
0001
0100
0010
1000
0100
,
1001
0010
0100
0001
0100
0010
1000
0100
,
0011
0000
1000
0000
0001
0000
1000
0000
0010
0100
0000
0100
0010
0000
0110
0000
,
1100
0010
1000
0010
0100
0001
0100
0010
,
0101
0010
1000
0100
0010
0001
0010
0100
,
1001
0010
1000
0010
0100
0001
0100
0010
,
1100
0000
0010
0001
0010
0000
0100
0000
0001
0010
0000
0100
1000
0010
0001
0010
,
1001
0000
0100
0000
1000
0000
0100
0000
1000
0001
0000
0001
1000
0000
0010
0000
,
0110
0000
0010
0000
1000
0000
0010
0000
0100
0010
0000
0100
0010
0000
0001
0000
,
0011
0000
1000
0000
0100
0000
0010
0000
0001
0010
0000
1000
0100
0000
0001
0000
,
0101
0000
0001
0000
0010
0000
0100
0000
1000
0100
0000
1000
0100
0000
1000
0000
,
0110
0000
1000
0000
0010
0000
0100
0000
0001
0010
0000
1000
0010
0000
0100
0000
,
1001
0000
0100
0000
0010
0000
0100
0000
0010
0100
0000
0100
0010
0000
0001
0000
,
0101
0000
0100
0000
0001
0000
0100
0000
0010
1000
0000
0100
0001
0000
0010
0000
,
1100
0000
0010
1000
0010
0000
0100
0000
0010
0100
0000
0100
0010
1000
0010
1000
,
0012
0000
0000
0000
0000
0000
0000
0010
,
0010
0000
2003
0000
3200
0320
0000
0100
,
0230
0000
0000
0302
0000
0000
0023
0001
,
2030
0000
3200
0000
0320
0032
0000
0000
,
0023
0000
0100
0000
0230
0001
0010
0001
,
0320
0000
2030
0000
3001
2000
0001
0000
,
3200
0000
0010
0000
0010
0302
0010
1003
,
0011
0000
1010
0000
0001
2000
0001
0001
,
3001
0000
0010
0000
0001
0000
0010
0000
0001
0010
0000
0001
1000
0000
0100
0000
,
0010
0000
0100
0000
0001
0000
1000
0000
0001
1000
0001
1000
0010
0000
0100
0000
,
0010
0000
1000
0000
0100
0000
1000
0000
0100
1000
0000
1000
0100
0000
0010
0000
,
1000
0000
0100
0000
0010
0000
0001
0000
1000
0010
0001
0010
1000
0000
0100
0000
,
0010
0000
0100
0000
0001
0000
0100
0000
0010
0100
0000
0100
0010
0000
1000
0000
,
0001
0000
1000
0000
0010
0000
0100
0000
0001
0010
1000
0100
0001
0000
1000
0000
,
0001
0000
0100
0000
0010
0000
1000
0000
0010
0001
0000
0001
0010
0000
0100
0000
,
1000
0000
0100
0000
1000
0000
0100
0000
0010
0100
0001
0100
0010
0000
0001
0000
,
1000
1000
1000
1000
,
1000
0000
1000
0100
0010
0001
0010
0100
,
1000
0100
1000
0010
1000
0100
1000
0010
,
0100
0000
0001
0000
1000
0000
0010
0000
0100
0010
0001
0000
0010
0000
0100
0000
,
0010
0000
0010
0000
0010
1000
0010
0100
,
0001
0100
0010
1000
0010
0100
0010
1000
,
0001
0001
0001
0001
,
0001
0000
0000
0000
0001
0000
0000
0000
0001
0000
0100
0010
0001
0000
0001
0010
,
1000
0000
0010
0000
0100
0000
0001
0000
0100
0010
0000
0100
0010
0000
1000
0000
,
0001
0000
0010
0000
0100
0000
1000
0000
0100
1000
0000
1000
0100
0000
0001
0000
,
0100
0000
0010
0000
1000
0000
0100
0000
0001
1000
0000
1000
0001
0000
0010
0000
,
1000
0000
0100
0000
1000
0000
0100
0000
0010
0100
0000
0010
0100
0000
0001
0000
,
0100
0000
0001
0000
0100
0000
0010
0000
1000
0100
0000
0010
0100
0000
0011
0000
,
1000
0000
0001
0000
1000
0000
0010
0000
0100
0001
0000
0100
1000
0000
1001
0000
,
0001
0000
0010
0000
0100
0000
0010
0000
0001
0010
0000
0100
0001
0000
0101
0000
,
0001
0000
0010
0001
0010
0000
0100
0000
0010
1000
0000
1000
0010
0000
0110
0000
,
1000
0000
0001
0000
0100
0000
0010
0000
1000
0100
0010
0100
1000
0000
0010
0000
,
0100
0000
0001
0000
0100
0000
0001
0000
0010
0001
0010
0001
1000
0000
0010
0000
,
0100
0000
0010
0000
1000
0000
0100
0000
0001
0010
0100
1000
0100
0000
0001
0000
,
1000
0000
0010
0000
0001
0000
0010
0000
1000
0010
1000
0010
0100
0000
0001
0000
,
0100
0000
0010
0000
0100
0000
0010
0000
0001
0010
1000
0100
0001
0000
0011
0000
,
0100
0000
0001
0000
0010
0000
0001
0000
0100
0001
0100
0001
0100
0000
1100
0000
,
0001
0000
1000
0000
0010
0000
1000
0000
0001
0010
0100
1000
0100
0000
1001
0000
,
0001
0000
0010
0001
0100
0000
0001
0000
1000
0010
0100
0001
1000
0100
0010
0001
,
2200
0000
0000
0000
0000
0000
0000
0000
3300
0000
0000
0000
1000
0001
1000
0001
,
0110
0000
0010
0110
0000
0100
0110
0000
,
1001
0000
0000
0101
0000
0000
1010
0101
,
1010
0000
0110
0000
,
1001
0000
0000
0000
,
0000
0000
0011
0000
1100
1010
0000
1010
,
1100
0000
0110
0000
,
1000
0100
0010
0001
1000
0100
0010
0001
0001
0010
0100
1000
0001
0010
0100
1000
,
0101
0000
0000
0000
0001
0000
0000
0000
0001
0000
0000
0000
0001
1000
0001
1000
,
0011
0000
0001
0100
0001
0010
0001
0000
,
0101
0000
0001
0010
0001
0000
0001
1000
,
0101
0001
0001
0001
,
0011
0001
0001
0001
,
0001
0000
1001
0000
0101
0010
0001
0010
,
0101
0001
1001
0001
,
0001
0010
0100
1000
0001
0010
0100
1000
0001
0010
1000
0100
0001
0010
1000
0100
,
1001
0000
0000
0000
1000
0000
0000
0000
1000
0000
0000
0000
1000
0100
0010
0001
,
1100
0000
1000
0010
1000
0100
1000
0000
,
1010
0000
1000
0001
1000
0000
1000
0100
,
1010
1000
1000
1000
,
1100
1000
1000
1000
,
1001
0000
1100
0000
1100
0010
1100
0010
,
1001
1000
1010
1000
,
1000
0010
0100
0001
1000
0010
0100
0001
1000
0010
0001
0010
1000
0010
0001
0010
,
1000
0000
0100
1000
0100
0000
0100
1000
0100
0000
0010
0000
0100
0000
0010
0000
,
0001
0000
0010
0001
0010
0000
0010
0001
0010
0000
0001
0000
0010
0000
0001
0000
,
1000
0000
0010
1000
0001
0000
0100
1000
0001
0000
0010
0000
0100
0000
1000
0000
,
0001
0000
1000
0010
1000
0000
0001
0100
0001
0000
1000
0000
0001
0000
1000
0000
,
0010
0000
0100
0010
0100
0000
0010
0100
0010
0000
0100
0000
0010
0000
1000
0000
,
0001
0000
0010
0100
1000
0000
0100
0010
0001
0000
1000
0000
0010
0000
0100
0000
,
0001
0000
0100
0001
0100
0000
0010
1000
0010
0000
0100
0000
1000
0000
0100
0000
,
0001
1000
0001
1000
0001
0010
1000
0000
1000
0100
1000
0100
0010
0001
0010
0000
,
1000
0000
0100
1000
0010
0000
0100
0010
0100
0000
0001
0000
0010
0000
1000
0000
,
0100
0000
0010
0001
1000
0000
0001
1000
0001
0000
1000
0000
0001
0000
0100
0000
,
0010
0000
0100
0010
0001
0000
0010
0100
1000
0000
0010
0000
1000
0000
0100
0000
,
0001
0000
0010
0001
0010
0000
0001
0010
0001
0000
0100
0000
0010
0000
1000
0000
,
0010
0000
0001
0010
0100
0000
1000
0001
0100
0000
0010
0000
1000
0000
0001
0000
,
0010
0000
0100
0001
0100
0000
0010
1000
0010
0000
0001
0000
0010
0000
1000
0000
,
0100
0000
1000
0100
1000
0000
0001
0010
0001
0000
1000
0000
0001
0000
0100
0000
,
0001
0100
0001
0100
0001
0010
0001
0000
1000
0010
1000
0010
1000
0100
1000
0000
,
1001
0000
0000
0000
,
0000
0000
0000
0000
,
0000
0000
0000
0000
,
0000
0000
0000
0000
,
0000
0000
0000
0000
,
0000
0000
0000
0000
,
0000
0000
0000
0000
,
0000
0000
0000
0000
,
0000
0000
0000
0000
,
0000
0000
0000
0000
,
0000
0000
0000
0000
,
0000
0000
0000
0000
,
0000
0000
0000
0000
,
0000
0000
0000
0000
,
0000
0000
0000
0000
,
0000
0000
0000
0000
,
0000
0000
0000
0000
;

//---------------dance-single - ----------------
#NOTES:
     dance-single:
     :
     Medium:
     15:
     1.000,1.000,1.000,0.000,1.000,1198.000,226.000,0.000,0.000,0.000:
0000
0000
0000
0000
,
0000
0000
0000
0000
,
0000
0000
0000
0000
,
0000
0000
0000
0000
,
0100
1000
0001
0010
0001
1000
0001
1000
0100
0001
0010
1000
0001
0100
0001
0010
,
0001
1000
0100
0010
0100
0001
1000
0001
0010
0001
1000
0100
0010
1000
0001
1000
,
0010
0001
0010
0001
1000
0100
1000
0001
0010
0001
0100
0001
1000
0001
0010
0100
,
1000
0001
1000
0001
0010
1000
0001
1000
0010
0001
1000
0100
1000
0001
1000
0100
,
0001
1000
0001
1000
0001
1000
0001
1000
0100
0001
0100
0001
0100
0001
0100
0001
,
0010
1000
0010
1000
0010
1000
0010
1000
0010
0001
0010
0001
0010
0001
0010
0001
,
1000
0001
1000
0001
1000
0001
1000
0001
0010
0100
0010
0100
0010
0100
0010
0100
,
0010
0000
0001
0000
1000
0000
0100
0000
0000
0001
0000
0000
1000
0000
0000
0001
0000
0000
0010
0000
0000
0100
0000
0000
0010
0000
1000
0000
0001
0000
0100
0000
0000
0001
0000
0000
0100
0000
1000
0000
0001
0000
0010
0000
0000
0001
0000
0000
,
0110
0000
1000
0000
0011
0000
0100
0000
0010
1000
0000
1000
0010
0000
0001
0000
,
1100
0000
0001
0000
0110
0000
0001
0000
1000
0100
0000
1000
0100
0000
0101
0000
,
0110
0000
1000
0000
0110
0000
0001
0000
1000
0001
0000
0001
1000
0000
0001
0000
,
1010
0000
0010
0000
0011
0000
0001
0000
1000
0100
0000
0001
1000
0000
1100
0000
,
0101
0000
1000
0000
0101
0000
0010
0000
0100
0001
0000
1000
0010
0000
1000
0000
,
0011
0000
0100
0000
1001
0000
0100
0000
0010
1000
0000
1000
0010
0000
1010
0000
,
1001
0000
0001
0000
1001
0000
0010
0000
0001
1000
0000
0100
0001
0000
0110
0000
,
0010
0000
1000
0010
0100
0000
0001
0000
0010
0000
1000
0100
0000
0100
1000
0001
,
0010
0000
1000
0010
1000
0000
1001
0000
0001
1000
0010
0001
0100
0000
1100
0000
,
0101
0000
0001
0010
0100
0000
0110
0000
0010
0100
0001
0100
0010
0000
1010
0000
,
0011
0000
1000
0001
1000
0000
1001
0000
0010
1000
0001
0100
0001
0000
0101
0000
,
1100
0000
0001
0010
0100
0000
0101
0000
1000
0001
1000
0001
0010
0000
0110
0000
,
1100
0000
1000
0100
1000
0000
1001
0000
1000
0001
0010
0100
0010
0000
0101
0000
,
0011
0000
0001
1000
0010
0000
1100
0000
0010
1000
0100
0001
1000
0000
0011
0000
,
1001
0000
0010
0100
0010
0000
0110
0000
0100
0010
0100
0010
0001
0000
0101
0000
,
1001
0000
0010
1000
0100
0000
1010
0000
0001
0010
0001
1000
0100
0000
0101
0000
,
0011
1000
0000
1000
0000
1000
0000
1001
,
0101
0010
0001
0010
0100
0011
0000
1010
,
1100
0001
0000
0011
0000
0001
1000
0011
,
0110
0100
1000
0100
0101
0110
0000
0100
,
1100
0001
1010
0001
0110
1001
0101
1010
,
1001
0010
1100
1000
0101
0011
1010
0100
,
0011
0001
1001
0001
1100
0110
0110
0101
,
1001
0000
0010
0000
1001
0000
0100
0000
1001
0000
0110
1000
0001
0000
0001
0010
,
0101
0000
0010
1000
0010
0000
0100
0001
0100
0001
1000
0001
0010
0001
1000
0100
,
0011
0000
0010
0100
0010
0000
0100
0010
0100
1000
0001
0010
1000
0001
0100
0001
,
1001
0000
0010
0100
1000
0000
0100
1000
0100
1000
0001
0010
0001
1000
0001
0100
,
1010
0000
0001
1000
0100
0000
0010
1000
0001
1000
0001
0010
1000
0001
0100
0001
,
0110
0000
1000
0001
0010
0000
0001
1000
0001
1000
0010
1000
0001
1000
0010
0001
,
0101
0000
0100
0001
0100
0000
0100
1000
0001
0010
0100
0001
0010
1000
0100
1000
,
0011
0000
0010
0100
0010
0000
0100
0001
0100
0001
1000
0001
0010
0001
1000
0100
,
1010
0001
1000
0100
0010
1000
0001
0100
0001
0010
0001
1000
0100
0001
0010
1000
,
1100
0000
0010
1000
0001
0000
1000
0000
0001
1000
0100
1000
0001
0000
1100
0000
,
1010
0000
0001
0010
0100
0000
1001
0000
0100
0001
0010
0001
0100
0000
0101
0000
,
1001
0000
1000
0001
0010
0000
0101
0000
1000
0100
1000
0100
0001
0000
0011
0000
,
0110
0000
0010
1000
0100
0000
1100
0000
1000
0001
0010
0001
0100
0000
1001
0000
,
1010
0000
0001
0010
0100
0000
1001
0000
0100
0001
1000
0010
1000
0000
1010
0000
,
0110
0000
0010
0001
0100
0000
1010
0000
0001
0010
0001
1000
0100
0000
1100
0000
,
1001
0000
1000
0100
0001
0000
0010
0000
0001
0100
0010
0100
0001
0000
0010
0000
,
0001
0000
0010
0100
0001
0000
0010
0000
0001
0100
0010
1000
0001
0100
1000
0001
,
0110
0000
1000
0000
1010
0000
0001
0000
1000
0001
0010
0001
0100
0000
1000
0000
,
0110
0000
0001
0000
1010
0000
0001
0000
0100
0001
0100
0001
0100
0000
1100
0000
,
0101
0000
0010
0000
1010
0000
0001
0000
0010
1000
0001
1000
0010
0000
1000
0000
,
0110
0000
1000
0000
0110
0000
0001
0000
0010
0001
0100
1000
0010
0000
1100
0000
,
1001
0000
0010
0000
1001
0000
0100
0000
1000
0100
1000
0001
0010
0000
1000
0000
,
0101
0000
0010
0000
0011
0000
0001
0000
1000
0001
0100
0001
0010
0000
1001
0000
,
0101
0000
0001
0000
0101
0000
0010
0000
0100
1000
0100
1000
0010
0000
0001
0000
,
0110
0000
1000
0000
1010
0000
0100
0000
0001
1000
0100
0001
0010
0000
0011
0000
,
0110
0000
1000
0001
0010
0000
1010
0000
0010
0001
1000
0100
0001
0000
0101
0000
,
1100
0000
1000
0100
1000
0000
1001
0000
0100
0001
0010
0001
1000
0000
0101
0000
,
1010
0000
0001
1000
0001
0000
1001
0000
0010
0001
0010
0001
1000
0000
1100
0000
,
0101
0000
0001
0100
0010
0000
0110
0000
0100
0010
0100
0001
0010
0000
1010
0000
,
1001
0000
1000
0010
0100
0000
0110
0000
0010
0001
1000
0001
0010
0000
1100
0000
,
0101
0000
1000
0001
1000
0000
1001
0000
0100
0001
0100
0001
0010
0000
0110
0000
,
0110
0000
0010
0100
0010
0000
1001
0000
0100
1000
0001
0010
0001
0000
0101
0000
,
1010
0000
0001
1000
0010
0000
0100
0000
0010
0100
0010
0100
0001
0000
1001
0000
,
1001
0000
0000
0000
0100
0000
0000
0000
0000
0000
0000
0000
0100
0000
0000
0000
0000
0000
0000
0000
0100
0000
0000
0000
0010
0000
1000
0000
0100
0001
1000
0010
,
1100
0001
1100
0011
0000
1001
0110
0001
,
1010
1000
0000
1001
0000
1000
1001
0110
,
0101
0010
0000
0010
1010
0010
0000
0010
,
1001
0100
0000
0100
0000
0100
0000
0100
,
0010
0100
0101
0010
1001
1100
0000
1001
,
0110
0000
1000
0000
0000
0000
1000
0000
0110
0000
1000
0000
0000
0000
1000
0010
,
0101
1000
0001
0010
0001
1000
0100
0001
1100
0010
1000
0001
1000
0010
0001
1000
,
0110
0000
0000
0000
1000
0000
0000
0000
0100
0000
0000
0000
1000
0000
0000
0000
0100
0000
0000
0000
1000
0000
0000
0000
0100
0000
0001
0000
1000
0001
0010
1000
,
0101
1000
0101
1010
0100
1001
0110
1000
,
0101
1000
0100
1010
0100
1000
0110
1001
,
0110
1000
0100
1000
0100
1000
0100
1000
,
0101
1000
0100
1000
0100
1000
0100
1000
,
0110
1000
0101
1000
0110
1010
0100
1001
,
0101
0000
1000
0000
0100
0000
1000
0000
0110
0000
1000
0000
0100
0000
1000
0001
,
0110
1000
0010
1000
0001
1000
0001
1000
0110
0001
0100
0001
0010
0001
1000
0100
,
1010
0000
0000
0000
0100
0000
0000
0000
0010
0000
0000
0000
0100
0000
0000
0000
0010
0000
0000
0000
0100
0000
0000
0000
0010
0000
1000
0000
0100
0001
0100
0001
,
0110
0100
1010
0101
0010
1100
0011
0100
,
1010
0100
0010
0101
0010
0100
1010
1100
,
1010
0100
0010
0100
0010
0100
0010
0100
,
0011
0100
0010
0100
0010
0100
0010
0100
,
1010
0100
0011
0100
1010
0110
0010
1100
,
0110
0100
0010
0100
0011
0100
0010
0100
,
1010
0001
0100
0001
1010
0100
0001
0100
1010
0001
0100
0001
1010
0100
0001
1000
,
0011
1000
0100
1000
0001
0010
0001
1000
0100
0001
0100
1000
0001
1000
0001
0010
,
1100
0001
0100
0001
1000
0010
0001
0010
1000
0100
1000
0100
0001
1000
0001
0010
,
0101
1000
0100
0001
1000
0010
1000
0001
0100
0010
0001
0010
0100
1000
0100
1000
,
0011
1000
0001
0010
1000
0010
0001
1000
0100
0001
0100
0010
0100
0001
1000
0010
,
1100
0001
0100
0001
0010
1000
0010
1000
0001
1000
0001
1000
0010
0001
0010
0001
,
1010
0100
0001
0010
1000
0100
0001
1000
0010
1000
0001
0100
0010
0001
0010
0001
,
1010
0001
1000
0001
1000
0010
1000
0001
0100
0001
0100
0001
0010
0001
0010
1000
,
0110
0001
1000
0010
0100
0001
1000
0010
1100
0001
0010
1000
0100
0001
0010
1000
,
0110
0001
1000
0001
0010
0001
1000
0001
0010
0001
1000
0001
0010
0001
1000
0001
,
1100
0001
1000
0010
0001
0010
1000
0001
0100
1000
0001
1000
0001
0010
0001
1000
,
0110
0010
0100
0010
0001
1000
0001
1000
0010
1000
0001
0100
0001
1000
0100
1000
,
1001
0010
1000
0010
0100
0001
1000
0010
0001
0100
0001
1000
0010
0001
0010
1000
,
0101
0001
0010
1000
0100
0001
1000
0010
1000
0001
0100
0010
0100
1000
0001
0010
,
1100
0001
0010
1000
0100
0001
0010
1000
0001
1000
0001
1000
0010
0001
1000
0100
,
1010
0001
0010
0100
0010
0001
1000
0001
0010
0100
0001
1000
0001
0100
0001
1000
,
0101
0010
0100
0010
0001
1000
0001
1000
0110
1000
0001
0100
0001
1000
0001
0010
,
0110
0000
0000
0000
,
0000
0000
0000
0000
,
0000
0000
0000
0000
,
0000
0000
0000
0000
,
0000
0000
0000
0000
,
0000
0000
0000
0000
,
0000
0000
0000
0000
,
0000
0000
0000
0000
,
0000
0000
0000
0000
,
0000
0000
0000
0000
,
0000
0000
0000
0000
,
0000
0000
0000
0000
,
0000
0000
0000
0000
,
0000
0000
0000
0000
,
0000
0000
0000
0000
,
0000
0000
0000
0000
,
0000
0000
0000
0000
;

//---------------dance-single - ----------------
#NOTES:
     dance-single:
     :
     Hard:
     19:
     1.000,1.000,1.000,0.006,1.000,1547.000,200.000,1.000,0.000,0.000:
0000
0000
0000
0000
,
0000
0000
0000
0000
,
0000
0000
0000
0000
,
0000
0000
0000
0000
,
0100
0000
0000
1000
0000
0000
0100
0000
0000
0001
0000
0000
0100
0000
1000
0000
,
0100
0000
0000
1000
0000
0000
0100
0000
0000
0001
0000
0000
0100
0000
1000
0000
,
0100
0000
0000
1000
0000
0000
0100
0000
0000
0001
0000
0000
0100
0000
1000
0000
,
0100
0000
0000
1000
0000
0000
0100
0000
0000
0001
0000
0000
0100
0000
1000
0000
,
0010
1000
0010
1000
0010
0100
0010
0100
0001
0100
0001
0100
0010
1000
0010
1000
,
0010
0100
0010
0100
0001
0100
0001
0100
0010
1000
0010
1000
0001
1000
0001
1000
,
0010
0100
0010
0100
0001
1000
0001
1000
0001
0100
0001
0100
0001
0100
0010
0100
,
0001
0100
0010
1000
0001
0100
0001
1000
0010
1000
0010
0100
1001
0100
0010
0100
,
1001
0100
0010
1000
0001
0000
1000
0101
0000
1000
0101
0000
0010
1000
0100
1000
,
0001
0100
0010
0100
0001
0000
1000
0101
0000
1000
0101
0000
0010
1000
0010
0100
,
0001
0010
0001
0100
0010
0000
1000
0011
0000
1000
0011
0000
0100
1000
0010
0100
,
0001
0100
0010
1000
0100
0000
1000
0011
0000
1000
0011
0000
0100
1000
0010
0100
,
0001
0100
0010
1000
0100
0000
1000
0101
0000
1000
0101
0000
0010
0100
0001
0010
,
0001
0100
0010
1000
0010
0000
1000
0101
0000
1000
0101
0000
0010
1000
0010
0100
,
0001
0100
0010
1000
0010
0000
0100
0011
0000
0100
0011
0000
0100
1000
0010
1000
,
0001
0100
0001
1000
0010
0000
0100
0011
0000
0100
0011
0000
0100
1000
0101
0010
,
1001
0100
0010
1000
0001
1000
0100
0011
1000
0100
0011
1000
0010
1000
0001
0100
,
0010
1000
0001
0100
0001
1000
0100
0011
1000
0100
0011
1000
0010
0100
0001
0010
,
0001
0100
0010
1000
0010
0100
0010
1001
0100
0010
1001
0100
0010
1000
0100
1000
,
0001
1000
0010
0100
0001
0100
0010
1001
0100
0010
1001
0100
0001
0100
0010
0100
,
0001
1000
0010
0100
0001
1000
0100
0011
1000
0100
0011
1000
0100
1000
0010
0100
,
0001
0100
0010
1000
0010
1000
0100
0011
1000
0100
0011
0100
0001
0100
0010
1000
,
0001
0100
0010
1000
0001
0100
0010
1001
0100
0010
1001
0100
0010
1000
0001
0100
,
0001
1000
0010
1000
0001
0100
0010
0001
0100
0010
0001
1000
0100
1000
0010
0100
,
1002
0000
0000
0000
0000
0000
0000
1000
,
1000
0000
0013
0000
0100
0001
0000
1000
,
1010
0000
0000
0100
0000
0000
0010
1000
,
1001
0000
0010
0000
1001
0100
0000
0000
,
1001
0000
0000
0000
1000
0010
0000
0010
,
1001
0000
0100
0000
1001
0010
0000
0000
,
1001
0000
0000
0000
1000
0001
0000
0010
,
1001
0000
0000
0000
1100
0000
0000
0000
1001
0000
0010
0100
1000
0000
0010
0100
,
1001
0010
0100
0010
1000
0010
0100
0001
0100
0001
0010
0100
0001
0100
0010
1000
,
0001
0100
0001
1000
0100
1000
0001
0100
0010
0100
0001
0100
0001
0010
0100
0010
,
1000
0010
1000
0001
0100
0001
0100
0010
1000
0100
0001
1000
0100
0010
0100
1000
,
0001
0010
1000
0010
0100
0001
1000
0010
1000
0001
0100
0010
0100
0001
0010
1000
,
0100
0010
0001
1000
0010
1000
0001
0100
0001
0100
0010
1000
0010
0100
0001
0010
,
1000
0010
0100
0001
0100
0010
1000
0010
0100
0010
0001
0010
1000
0010
1000
0001
,
0010
1000
0001
0100
0010
1000
0010
0100
0001
0100
0010
0001
0010
1000
0010
1000
,
0001
0100
1000
0100
0010
1000
0001
0010
0100
0001
0100
0001
1000
0010
1000
0001
,
0100
0010
0001
0010
1000
0100
0001
1000
0001
0100
0010
0100
0001
1000
0010
0001
,
0100
0001
0100
1000
0001
0010
0100
0001
1000
0100
0001
0100
0001
0010
1000
0010
,
0100
0001
0100
0010
1000
0001
0010
1000
0100
0001
0100
0001
0010
1000
0010
0100
,
0001
0100
0010
0100
1000
0001
0100
0010
0001
0100
0010
1000
0001
0100
0001
0010
,
1000
0100
0001
0100
1000
0010
0001
1000
0100
0001
0100
0001
1000
0010
0100
0001
,
1000
0010
0100
0010
0001
0100
0010
1000
0010
0100
0001
1000
0010
1000
0010
0001
,
0100
0001
0100
1000
0001
0010
0100
0010
1000
0100
0001
0100
0010
1000
0001
0100
,
0001
0100
0010
1000
0010
0100
0010
0001
1000
0100
0001
0100
0010
1000
0010
1000
,
0001
0100
0010
1000
0001
0100
0010
0001
1000
0100
0010
1000
0001
1000
0010
0100
,
0001
0100
0001
1000
0010
0100
0010
0001
1000
0100
0010
0100
0001
1000
0010
1000
,
0010
0100
0001
0010
0001
0100
0010
0001
0100
0010
0001
1000
0010
0100
0001
1000
,
0010
0100
0010
1000
0001
0100
0010
0001
0100
0010
0001
1000
0010
1000
0001
1000
,
0001
0100
0001
1000
0010
1000
0100
0010
1000
0100
0010
1000
0001
0100
0010
1000
,
0001
0100
0001
1000
0010
1000
0100
0010
1000
0100
0010
1000
0001
1000
0010
0100
,
0001
1000
0010
0100
0010
1000
0100
0010
0100
0010
0001
0100
0001
0100
0010
1000
,
0010
0100
0001
1000
0010
0100
0010
0001
1000
0100
0010
1000
0010
1000
0001
0100
,
0010
0100
0001
0010
0100
1000
0010
0001
1000
0010
0001
1000
0100
0010
0100
1000
,
0001
0010
0100
0010
0001
1000
0010
0001
1000
0010
0001
0100
0010
0001
0010
0100
,
0010
0100
1000
0010
0001
1000
0100
0001
1000
0100
0001
0100
0010
0001
0100
1000
,
0010
0100
1000
0100
0010
1000
0100
0001
1000
0100
0001
0100
0010
0001
0100
1000
,
0001
0010
0100
1000
0001
0100
0010
0001
1000
0100
0001
0100
0010
0100
1000
0100
,
0001
0010
1000
0100
0010
1000
0100
0001
0100
0010
0001
1000
0100
0001
0010
0100
,
0001
0010
1000
0100
0010
1000
0100
0001
0100
0010
0001
1000
0100
0010
0100
1000
,
0001
0100
0001
1000
0010
0000
0100
0001
0000
0100
0001
0000
1000
0100
0010
0100
,
1001
0000
0000
0000
0000
0000
0000
0000
0000
0000
0000
0000
0000
0000
0000
0000
0000
0000
0000
0000
0000
0000
0000
0000
0000
0000
0000
0000
0001
1000
0100
0010
,
0001
0000
0001
0100
0000
0010
1000
0000
,
0100
0000
0000
0001
0000
0000
0010
0001
,
0010
0000
0000
0000
,
0101
0000
0000
0000
,
0000
0000
0001
0000
1000
0010
0000
0010
,
0101
0000
1010
0000
,
1001
0010
0100
1000
0001
0010
0100
1000
0101
0010
0100
1001
0001
1000
0001
0100
,
1001
0000
0000
0000
0100
0000
0000
0000
1000
0000
0000
0000
0100
0000
0000
0000
1000
0000
0000
0000
0100
0000
0000
0000
1001
0000
0000
0000
0001
1000
0100
0010
,
0001
0100
1001
0110
1000
0101
1010
0100
,
1010
0100
1000
0101
1000
0100
1010
0101
,
1010
0100
1000
0100
1000
0100
1000
0100
,
1001
0100
1000
0100
1000
0100
1000
0100
,
1000
0100
1001
0100
1010
0101
1000
0100
,
1010
0100
1000
0100
1001
0100
1000
0100
,
1001
0010
0100
0010
1001
0010
0100
1000
0101
0010
0100
1000
0011
0100
1000
0001
,
1010
0000
0000
0000
0100
0000
0000
0000
1000
0000
0000
0000
0100
0000
0000
0000
1000
0000
0000
0000
0100
0000
0000
0000
1001
0000
0000
0000
0001
1000
0100
0010
,
0001
0100
1001
0101
1000
0101
1010
0100
,
1001
0100
1000
0101
1000
0100
1010
0101
,
1010
0100
1000
0100
1000
0100
1000
0100
,
1001
0100
1000
0100
1000
0100
1000
0100
,
1000
0100
1001
0100
1010
0101
1000
0100
,
1001
0100
1000
0100
1001
0100
1000
0100
,
0001
0010
0100
1000
0001
0010
0100
1000
0010
0100
1000
0100
0001
0010
0100
0010
,
1001
0010
0100
0010
1001
0010
0100
0010
1001
0100
1001
0010
1001
0100
1001
0010
,
1001
0010
0100
0010
1001
0010
0100
0010
1001
0100
1001
0010
1001
0100
1001
0010
,
1001
0010
0100
0010
1001
0010
0100
0010
1001
0100
1001
0010
1001
0100
1001
0010
,
1001
0010
0100
0010
1001
0010
0100
0010
1001
0100
1001
0010
1001
0100
1001
0010
,
1001
0100
0010
0100
1001
0100
0010
0100
1001
0010
1001
0100
1001
0010
1001
0100
,
1001
0100
0010
0100
1001
0100
0010
0100
1001
0010
1001
0100
1001
0010
1001
0100
,
1001
0100
0010
0100
1001
0100
0010
0100
1001
0010
1001
0100
1001
0010
1001
0100
,
1001
0100
0010
0100
1001
0010
0100
0010
1001
0100
0010
0001
1010
0100
0010
0100
,
1001
0010
0100
0010
1001
0100
0010
0100
1001
0010
1001
0100
1001
0010
1001
0100
,
1001
0010
0100
0010
1001
0100
0010
0100
1001
0010
1001
0100
1001
0010
1001
0100
,
1001
0010
0100
0010
1001
0100
0010
0100
1001
0010
1001
0100
1001
0010
1001
0100
,
1001
0010
0100
0010
1001
0100
0010
0100
1001
0010
1001
0100
1001
0010
1001
0100
,
1001
0100
0010
0100
1001
0010
0100
0010
1001
0100
1001
0010
1001
0100
1001
0010
,
1001
0100
0010
0100
1001
0010
0100
0010
1001
0100
1001
0010
1001
0100
1001
0010
,
1001
0100
0010
0100
1001
0010
0100
0010
1001
0100
1001
0010
1001
0100
1001
0010
,
1001
0100
0010
0100
1001
0010
0100
0010
1001
0100
0001
0010
1100
0001
0010
0100
,
1001
0100
0010
1000
0001
0100
0010
1001
0100
0010
1001
0100
0010
1000
0001
0100
,
0010
1000
0001
0100
0001
0100
0010
1001
0100
0010
1001
0100
0010
0100
0001
0010
,
0001
0100
0010
1000
0010
0100
0010
1001
0100
0010
1001
0100
0010
1000
0100
1000
,
0001
1000
0010
0100
0001
0100
0010
1001
0100
0010
1001
0100
0001
0100
0010
0100
,
0001
1000
0010
0100
0001
1000
0100
0011
1000
0100
0011
1000
0100
1000
0010
0100
,
0001
0100
0010
1000
0010
1000
0100
0011
1000
0100
0011
0100
0001
0100
0010
1000
,
0001
0100
0010
1000
0001
1000
0100
0011
1000
0100
0011
0100
0010
1000
0001
0100
,
0001
1000
0010
0100
0001
1000
0100
0011
1000
0100
0011
1000
0100
1000
0010
0100
,
0001
1000
0001
0100
0010
1000
0010
0001
1000
0010
0001
1000
0010
0100
0010
1000
,
0001
0100
0010
1000
0001
1000
0010
0001
1000
0010
0001
0100
0010
1000
0001
0100
,
0010
0100
0001
0100
0001
1000
0100
0001
1000
0100
0001
0100
0010
1000
0001
1000
,
0010
0100
0001
1000
0010
1000
0100
0001
1000
0100
0001
0100
0010
1000
0001
0100
,
0001
0100
0010
1000
0001
1000
0100
0001
1000
0100
0001
0000
0010
1000
0100
1000
,
0001
0100
0010
0100
0001
1000
0100
0001
1000
0100
0001
0000
0010
1000
0010
0100
,
0001
0010
0001
0100
0010
0000
1000
0001
0000
1000
0001
0000
0100
0000
0010
0000
,
1000
0000
0010
0000
0100
0000
0000
0001
0000
0000
0001
0000
0010
0000
2000
0000
,
0000
0000
0000
0000
;

//---------------dance-single - ----------------
#NOTES:
     dance-single:
     :
     Challenge:
     31:
     1.000,1.000,1.000,0.720,1.000,1558.000,574.000,121.000,0.000,96.000:
0000
0000
0000
0200
,
0000
0000
0000
0000
,
0000
0000
0000
0302
,
0000
2000
0000
0000
,
3103
0000
0000
0001
0000
0000
0100
0000
0000
0001
0000
0000
0010
0000
1000
0000
,
0010
0000
0000
1000
0000
0000
0100
0000
0000
0001
0000
0000
0001
0000
1000
0000
,
0001
0000
0000
1000
0000
0000
0100
0000
0000
0001
0000
0000
1000
0000
1000
0000
,
0100
0000
0000
1000
0000
0000
0100
0000
0000
0001
0000
0000
0100
0000
1000
0000
,
0110
0001
1010
0001
0110
0001
1010
0100
1001
0100
1001
0100
0011
1000
0110
1000
,
0011
0100
1010
0100
0011
0100
1001
0100
0011
1000
0110
1000
0011
1000
0101
1000
,
0011
0100
0011
0100
0011
1000
0101
1000
0011
0100
0011
0100
1001
0100
1010
0100
,
0011
0100
0011
1000
0011
0100
0011
1000
0011
1000
0010
0100
1001
0100
0010
0100
,
1001
0100
0011
0000
0110
0000
1100
0000
0110
0001
1100
0001
0110
0000
1100
0000
,
0110
0000
0011
0000
0110
0000
1001
0000
0110
0000
0011
1000
0110
1000
0011
1000
,
0110
0000
0011
0000
0110
0000
1100
0000
1001
0010
1001
0100
1001
0010
1001
0100
,
1001
0110
0011
0110
1001
0110
1001
0110
,
0011
0000
0110
0000
1001
0000
0011
0000
0110
0000
1001
0000
1100
0010
0101
0010
,
1100
0010
0101
0010
1100
0000
0110
0000
0011
0000
0110
0000
1001
0000
0011
0000
,
0110
0000
1100
0000
0101
0000
0110
0000
1001
0010
1100
0010
1100
0001
1100
0001
,
0110
0000
1102
0000
0110
0000
0123
0000
1032
0100
1010
0100
0013
1000
0101
0010
,
1001
0010
0100
1000
0010
0100
0001
0010
1000
0100
0010
0100
1000
0001
0010
0100
,
0010
0001
1000
0100
0010
0001
0010
0100
0001
0010
1000
0001
0100
0010
0001
0100
,
1000
0010
0100
0001
0010
0100
1000
0100
0010
0001
0100
1000
0010
0100
0001
0010
,
0100
1000
0010
0100
0001
0010
0100
0001
0010
0100
1000
0010
0100
0001
1000
0100
,
0010
0100
0001
0010
1000
0100
1000
0001
0010
0100
0001
0010
0001
0100
0010
0100
,
0001
0010
1000
0100
1000
0100
0010
0001
1000
0010
0001
0010
1000
0001
0010
1000
,
0010
0001
0100
0010
1000
0001
0010
0100
0010
0001
1000
0100
0010
0100
0010
0001
,
0100
0010
1000
0001
0012
0100
1000
0010
0203
1000
0320
1000
0100
1000
0001
0100
,
1032
1100
0000
0110
0000
1100
0000
1010
,
1100
1100
0023
0000
0230
0302
0000
1003
,
1020
0000
0000
0230
0000
0000
0320
1000
,
0231
0000
0320
0000
1032
0100
0000
0003
,
2001
0000
0000
0000
0000
0000
0000
3000
1000
0000
0210
0000
0000
0000
0020
0000
,
1302
0000
0030
0000
0100
0000
0000
0003
2001
0000
3020
0000
0000
0000
0000
0000
,
2031
0000
0110
0000
0000
0000
0011
3000
2000
0000
3102
0000
0000
0000
0123
0000
,
1032
0000
0110
0000
1203
0000
0000
0000
1302
0000
0010
0100
1003
0000
0010
0100
,
2001
0010
0100
0010
0001
0010
0001
0010
0100
0010
0100
0001
0010
0001
0010
0100
,
0001
0010
3100
0010
0002
1000
0100
0010
2003
0010
3002
0100
0010
1000
0013
0001
,
0200
1000
0010
0001
0010
1000
0001
1000
0320
0100
1000
0100
0032
0010
0100
1000
,
0203
0010
0001
1000
0320
0100
1000
0100
0032
0100
2003
0010
0100
0001
0010
0001
,
3200
0010
0001
0010
1000
0010
1000
0001
0010
0001
1000
0001
0010
0001
1000
0001
,
0320
0100
0001
0100
0032
0100
0010
1000
0023
1000
0230
0001
0010
1000
0001
1000
,
0320
0001
0100
1000
0100
1000
0001
0100
1000
0001
0100
0001
0100
1000
0001
0100
,
1032
0100
0010
0100
2003
0010
0001
0010
3200
0001
0320
0001
0100
1000
0100
1000
,
0032
0100
0010
0100
0010
0100
1000
0100
1000
0100
0010
0100
1000
0100
0010
0100
,
0010
1000
0100
0010
2003
0010
0001
0010
3200
0010
0302
1000
0100
0010
1000
0100
,
0023
0100
0001
0100
1000
0001
0230
0010
0001
0010
1000
0001
2300
0010
0100
0010
,
3002
0010
0100
1000
0023
0100
0001
0100
0032
0010
2003
0100
0010
0001
0100
0001
,
3020
0100
0001
0100
1000
0100
0001
0100
1000
0001
0100
1000
0001
0100
1000
0100
,
0032
0100
1000
0100
0023
0100
0001
0100
2030
0010
3002
0100
0010
0100
1000
0100
,
0023
0001
0100
0001
0100
1000
0100
0001
0100
1000
0100
1000
0100
0001
0100
1000
,
0100
0001
0100
0001
0100
1000
0100
0001
0100
0001
0001
1000
1000
0100
0100
0001
,
1031
0010
1100
0001
1100
0010
0100
1000
0101
0010
1000
0001
1100
0001
0100
0010
,
1100
0010
1000
0001
1100
0010
0100
1000
0101
0010
0100
0010
1100
0001
0100
0001
,
1100
0010
1000
0100
1001
0010
0100
1000
0011
0100
1000
0001
1100
0010
1000
0001
,
1100
0010
0100
0001
1100
0010
0100
1000
0011
0100
1000
0001
0110
0001
1000
0001
,
1100
0010
1000
0001
1100
0001
0010
0100
1001
0010
0100
0001
1100
0010
0100
0001
,
1100
0010
1000
0001
1100
0001
0010
0100
1001
0010
0100
0001
1100
0001
0100
0010
,
1100
0001
0100
0010
1100
0001
0010
0100
0011
0100
1000
0010
1100
0010
0100
0001
,
1100
0010
1000
0001
1100
0010
0100
1000
0101
0010
0100
0001
0110
0001
1000
0010
,
1100
0010
1000
0100
1010
0001
0100
1000
0011
0100
1000
0001
1010
0100
0010
0001
,
1010
0100
0010
0100
1010
0001
0100
1000
0011
0100
1000
0010
0101
1000
0100
0010
,
1100
0010
0001
0100
1010
0001
0010
1000
0101
0010
1000
0010
0101
1000
0010
0001
,
1100
0010
0001
0010
1100
0001
0010
1000
0101
0010
1000
0010
0101
1000
0010
0001
,
1010
0100
0010
0001
1100
0010
0100
1000
0101
0010
1000
0010
1100
0010
0001
0010
,
1001
0100
0001
0010
1100
0001
0010
1000
0011
0100
1000
0001
0110
1000
0100
0010
,
1001
0100
0001
0010
1100
0001
0010
1000
0011
0100
1000
0001
1010
0100
0010
0001
,
1100
0010
1000
0001
1100
0000
0010
1100
0000
0010
1100
0000
0001
0001
0100
0100
,
1012
0000
0000
0000
0110
0000
0000
0000
0003
0000
0000
0000
0110
0000
0000
0000
0000
0000
0000
0000
0110
0000
0000
0000
0000
0000
0000
0000
1000
0001
0010
0100
,
2000
0000
0110
3000
2000
0000
3102
0000
0000
0000
0113
0000
0002
0000
0110
0000
,
2003
0110
3000
1002
0000
0113
0002
1010
,
2003
0110
3000
0110
0002
0110
0000
0110
,
2013
0110
3000
0110
0000
0110
0000
0110
,
0000
0000
0110
0000
2000
0000
0110
0000
3002
0000
0123
0000
0000
0030
0110
0000
,
2010
0110
3000
0110
2001
0110
3000
0110
,
1100
0110
0011
1001
0011
0110
1100
1001
1100
0110
0011
1001
0110
0001
1000
0010
,
1101
0000
0000
0000
0010
0000
0000
0000
0101
0000
0000
0000
0010
0000
0000
0000
0101
0000
0000
0000
0010
0000
0000
0000
1001
0000
0000
0000
1000
0001
0010
0100
,
2000
0000
0010
3000
2001
0000
3120
0000
0131
0000
1010
0000
2001
0000
0010
0000
,
3102
0000
0010
0003
0101
0000
1010
0000
2001
0000
0010
0000
3201
0000
1320
0000
,
2130
0010
0001
3010
0101
0010
0101
0010
,
2001
0010
0101
3010
0101
0010
1001
0010
,
0101
0010
2001
0010
3201
1320
0131
0010
,
2001
0010
3101
0010
2001
0010
3101
0010
,
1001
0110
0011
0110
0011
1100
0110
0011
0110
1100
0110
0011
1100
0110
0011
0110
,
2001
0000
0000
0000
0010
0000
0000
0000
3101
0000
0000
0000
0010
0000
0000
0000
0101
0000
0000
0000
0010
0000
0000
0000
1001
0000
0000
0000
1000
0001
0010
0100
,
2000
0000
0010
3000
1002
0000
1023
0000
0031
0000
1010
0000
0201
0000
0010
0000
,
2301
0010
3001
2010
0001
3010
0102
1023
,
0231
0010
1001
0310
0101
0010
1001
0010
,
2001
0010
0101
3010
1001
0010
0101
0010
,
1001
0010
2001
0010
3201
2310
0101
3010
,
0201
0010
1001
0310
0201
0010
1001
0010
,
0311
0110
1100
0000
0011
0110
1100
1000
0011
0110
1100
1000
0011
0110
1100
1000
,
0011
0110
1100
0110
1011
0110
1100
0110
0011
0110
1100
0110
1011
0110
1100
0110
,
0011
0110
1100
0110
1011
0110
1100
0110
0011
0110
1100
0100
1011
0110
1100
0110
,
0011
0110
1100
0110
1011
0110
1100
0110
0011
0110
1100
0110
1011
0110
1100
0110
,
0011
0110
1100
0110
1011
0110
1100
0110
0011
0110
1100
0110
1011
0110
1100
0110
,
0011
0110
1100
0110
1011
0110
1100
0110
0011
0110
1100
0110
1011
0110
1100
0110
,
0011
0110
1100
0110
1011
0110
1100
0110
0011
0110
1100
0110
1011
0110
1100
0110
,
0011
0110
1100
0110
1011
0110
1100
0110
0011
0110
1100
0110
1011
0110
1100
0110
,
0011
0110
1100
0110
1011
0110
1100
0110
0011
0110
1100
0110
1001
0110
1001
0110
,
1001
0011
1100
0011
1100
0011
1100
0011
1110
0110
1100
0110
0011
1010
0101
1010
,
0101
1010
0101
1010
0110
1001
0110
1001
1100
0110
0011
0110
1011
0110
1100
0110
,
0011
0110
1100
0110
1001
0110
1001
0110
1100
0110
0011
0110
1011
0110
1001
0110
,
1001
0110
1001
0110
1001
0110
1001
0110
1100
0110
0011
0110
1100
0110
0011
0110
,
1011
0101
1010
0101
1010
0011
1100
0011
1100
0011
1100
0010
1100
0110
0011
0110
,
1100
0110
0011
0110
1011
0110
0101
1010
1100
0110
0011
0110
1100
0110
0011
0110
,
1011
0101
1010
0110
1001
0010
0100
0010
1100
0110
0011
0110
1100
0110
0011
0110
,
2011
0100
0010
0100
3011
0010
0100
0010
2001
0100
0001
0010
3101
0001
0010
0100
,
1011
0100
0010
0001
1000
0100
0010
1001
0100
0010
1001
0100
0010
0001
1000
0100
,
0010
0001
1000
0100
1000
0100
0010
1001
0100
0010
1001
0100
0010
0100
1000
0010
,
1000
0100
0010
0001
0010
0100
0010
1001
0100
0010
1001
0100
0010
0001
0100
0001
,
1000
0001
0010
0100
1000
0100
0010
1001
0100
0010
1001
0100
1000
0100
0010
0100
,
1000
0001
0010
0100
1000
0001
0100
1010
0001
0100
1010
0001
0100
0001
0010
0100
,
1000
0100
0010
0001
0010
0001
0100
1010
0001
0100
1010
0100
1000
0100
0010
0001
,
1000
0100
0010
0001
1000
0001
0100
1010
0001
0100
1010
0100
0010
0001
1000
0100
,
1000
0001
0010
0100
1000
0001
0100
1010
0001
0100
1010
0001
0100
0001
0010
0100
,
1000
0001
1000
0100
0010
0001
0010
1000
0001
0010
1000
0001
0010
0100
0010
0001
,
1000
0100
0010
0001
1000
0001
0010
1000
0001
0010
1000
0100
0010
0001
1000
0100
,
0010
0100
1000
0100
1000
0001
0100
1000
0001
0100
1000
0100
0010
0001
1000
0001
,
0010
0100
1000
0001
0010
0001
0100
1000
0001
0100
1000
0100
0010
0001
1000
0100
,
1000
0100
0010
0001
1000
0001
0100
1000
0001
0100
1000
0000
0010
0001
0100
0001
,
1000
0100
0010
0100
1000
0001
0100
1000
0001
0100
1000
0000
0010
0001
0010
0100
,
1000
0010
1000
0100
0010
0000
0001
1000
0000
0001
1000
0000
0100
0000
0010
0000
,
0001
0000
0100
0000
1000
0220
0000
0000
,
0000
0330
0000
0000
0000
0000
0000
0000
;

//---------------dance-solo - ----------------
#NOTES:
     dance-solo:
     :
     Hard:
     29:
     1.000,1.000,1.000,0.018,1.000,1547.000,255.000,3.000,0.000,6.000:
000000
000000
000000
000000
,
000000
000000
000000
000000
,
000000
000000
000000
000000
,
000000
000000
000000
000000
,
010000
000000
000000
000010
000000
000000
010000
000000
000000
000100
000000
000000
010000
000000
000100
000000
,
010000
000000
000000
100000
000000
000000
010000
000000
000000
000100
000000
000000
010000
000000
000001
000000
,
010000
000000
000000
100000
000000
000000
010000
000000
000000
000100
000000
000000
000001
000000
100000
000000
,
001000
000000
000000
100000
000000
000000
010000
000000
000000
000100
000000
000000
010000
000000
100000
000000
,
001000
010000
001000
010000
001000
000100
001000
000010
000100
001000
000100
000010
001000
000001
001000
000001
,
001000
000100
001000
000100
001000
010000
001000
010000
001000
010000
001000
010000
000100
000010
000100
000010
,
000001
000010
000001
000010
000100
100000
000100
100000
000100
000010
000100
000010
000100
010000
001000
010000
,
001000
010000
001000
000001
000100
010000
000100
100000
000010
100000
001000
010000
100010
010000
001000
010000
,
100001
010000
001000
100000
000100
000000
000010
010100
000000
000001
010100
000000
000001
000010
001000
000100
,
100000
010000
000100
001000
000001
000000
100000
001100
000000
100000
001100
000000
000100
010000
000100
000001
,
000100
001000
100000
001000
000100
000000
000010
001100
000000
010000
001100
000000
000100
100000
000010
010000
,
000010
010000
000010
000100
010000
000000
001000
001100
000000
000100
001100
000000
000100
000010
001000
010000
,
001000
010000
000010
000001
000010
000000
001000
010100
000000
000010
010100
000000
001000
010000
000100
001000
,
000100
010000
001000
100000
001000
000000
100000
010100
000000
000010
010100
000000
001000
000100
001000
010000
,
000100
000010
000100
001000
100000
000000
010000
001100
000000
010000
001100
000000
010000
100000
001000
100000
,
000100
010000
000100
100000
001000
000000
000001
001100
000000
000010
001100
000000
101000
000010
010100
001000
,
010010
000100
001000
000010
000100
001000
010000
001100
100000
010000
001100
100000
001000
100000
001000
010000
,
001000
000100
000010
000001
000100
000010
010000
001100
100000
010000
001100
000010
001000
010000
000100
000001
,
000100
010000
001000
000010
001000
010000
001000
000001
000010
000100
001000
010000
001000
100000
010000
100000
,
000100
100000
001000
010000
000100
010000
001000
100100
010000
001000
000101
000010
000100
000010
000100
010000
,
000100
100000
001000
010000
000100
100000
010000
001010
100000
010000
001100
000001
000100
010000
000010
001000
,
000100
010000
001000
100000
001000
100000
010000
001001
100000
010000
001010
010000
000010
010000
001000
100000
,
000010
000100
001000
010000
000100
010000
001000
000001
000010
001000
100100
010000
001000
000001
000100
010000
,
000100
100000
001000
100000
000100
010000
001000
000100
010000
001000
010000
000010
000001
000100
001000
010000
,
001202
000000
000000
000000
000000
000000
000000
100000
,
100000
000000
001303
000000
000010
000100
000000
000001
,
001001
000000
000000
000010
000000
000000
000100
001000
,
100100
000000
001000
000000
100100
000010
000000
000000
,
000101
000000
000000
000000
000010
001000
000000
001000
,
010100
000000
000010
000000
100100
001000
000000
000000
,
001100
000000
000000
000000
000100
000100
000000
001000
,
001100
000000
000000
000000
010010
000000
000000
000000
000101
000000
001000
010000
100000
000001
000010
000100
,
001001
000100
010000
001000
100000
001000
010000
000100
010000
000100
000010
000001
000100
000010
000001
001000
,
000010
001000
000100
001000
010000
100000
000010
000100
001000
010000
000010
010000
000100
001000
010000
001000
,
000100
001000
010000
000100
000010
000100
000010
001000
100000
010000
000100
001000
000010
000001
010000
100000
,
000100
001000
100000
001000
010000
000100
000010
001000
000001
000100
001000
000010
010000
000100
001000
100000
,
010000
000010
000100
000010
001000
000001
000100
001000
000100
010000
000100
000010
001000
010000
000100
001000
,
000001
000010
001000
000100
010000
001000
100000
000010
001000
010000
000100
000010
010000
001000
100000
000100
,
001000
100000
000001
000010
001000
100000
001000
000010
000001
010000
001000
010000
000010
000100
001000
000010
,
000100
000010
000001
010000
001000
100000
000010
001000
010000
000010
010000
000001
000100
001000
100000
000100
,
100000
010000
000100
000010
100000
010000
000100
000001
000100
000010
001000
010000
000100
010000
000010
000100
,
010000
000100
010000
100001
000010
001000
010000
000100
100000
010000
001000
000010
000100
001000
100000
001000
,
000010
000100
010000
001000
100000
000100
001000
100000
010000
000001
000010
001000
010000
100000
001000
010000
,
000100
000010
001000
010000
100000
000100
010000
001000
000100
010000
001000
100000
000100
000010
000001
001000
,
000010
010000
000100
000010
100000
001000
000100
100000
000010
000100
010000
000100
100000
001000
000010
000100
,
000001
000010
010000
000001
000100
010000
000010
100000
001000
000010
000100
100000
001000
100000
000001
000100
,
010000
000100
010000
100000
000010
001000
000100
001000
100000
010000
000010
010000
001000
100000
000100
000010
,
000100
010000
000001
100000
001000
010000
001000
000100
100010
010000
000110
010000
001001
100000
001100
100000
,
000110
010000
001000
000010
000100
010000
001000
000010
001000
000100
000001
100000
000100
100000
001000
010000
,
000100
000010
000100
000001
000100
010000
001000
000100
010000
000010
001000
010000
000100
000010
001000
000001
,
001000
010000
000100
001000
000100
010000
001000
000100
010000
001000
100000
000010
000001
010000
001000
000010
,
000100
010000
100000
000010
000100
010000
001000
000100
010000
001000
000100
000001
000010
010000
000100
100000
,
000100
010000
000100
100000
000010
010000
000100
001000
000010
000001
000100
100000
000100
000010
001000
100000
,
000100
010000
001000
000010
000001
000100
010000
100000
000100
000010
001000
100000
000100
000010
001000
010000
,
000100
000001
000010
000100
000001
000100
000010
100000
010000
000100
000010
010000
000100
000010
000100
100000
,
001000
000001
000010
010000
000100
010000
001000
000100
001000
000100
000010
000001
000100
001000
100000
000010
,
001000
010000
000100
000010
010000
000100
000010
000001
000100
010000
000010
100000
010000
000010
001000
100000
,
000100
010000
100000
001000
000100
000001
001000
000100
010000
000100
000010
000001
010000
000010
000100
010000
,
100000
000010
000100
010000
000100
000001
000010
001000
000100
010000
000100
010000
000010
000001
000100
000001
,
010000
100000
000010
010000
001000
100000
010000
000100
100000
000001
000100
000010
001000
000100
010000
100000
,
000001
000100
001000
100000
000100
010000
001000
000100
100000
010000
000100
000001
001000
010000
100000
000010
,
000100
001000
000010
000100
010000
000010
000001
000100
010000
001000
000100
100000
010000
000100
001000
010000
,
000001
000100
000010
000100
010000
100000
000010
000100
010000
001000
000100
100000
010000
000010
011000
000001
,
000100
010000
000110
100000
001000
000000
000011
000100
000000
010000
000110
000000
010001
000100
001010
000100
,
100001
000000
000000
000000
000000
000000
000000
000000
000000
000000
000000
000000
000000
000000
000000
000000
000000
000000
000000
000000
000000
000000
000000
000000
000000
000000
000000
000000
010010
100000
001000
000100
,
000001
000000
000100
001000
000000
000000
100000
000000
,
010000
000000
000000
000010
000000
000000
001000
000010
,
001000
000000
001100
000000
,
010100
000000
000000
000000
,
000000
000000
000100
000000
100000
000010
000000
000000
,
010100
000000
101000
000000
,
100001
000010
001000
010000
100001
010000
000100
000010
100001
000010
000100
010001
000110
010000
000110
010000
,
101001
000000
000000
000000
001000
000000
000000
000000
100000
000000
000000
000000
001000
000000
000000
000000
100000
000000
000000
000000
001000
000000
000000
000000
100100
000000
000000
000000
000100
100000
001000
000010
,
000001
001000
100100
001010
100000
001000
100001
001000
,
100010
001000
100000
001010
100000
001000
100100
001001
,
100100
001000
100000
001000
100000
001000
100000
001000
,
100010
001000
100000
001000
100000
001000
100000
001000
,
100000
001000
100001
001000
100010
001001
100000
001000
,
100010
001000
100000
001000
100001
001000
100000
001000
,
100001
000100
010000
000010
100001
000100
001000
000010
100001
000100
010000
000100
100001
010010
001100
010010
,
101001
000000
000000
000000
001000
000000
000000
000000
100000
000000
000000
000000
001000
000000
000000
000000
100000
000000
000000
000000
001000
000000
000000
000000
100001
000000
000000
000000
000100
100000
010000
000100
,
000011
001000
100100
001001
100000
001010
100100
001000
,
100001
001000
100000
001010
100000
001000
100100
001001
,
100010
001000
100000
001000
100000
001000
100000
001000
,
100001
001000
100000
001000
100000
001000
100000
001000
,
100000
001000
100010
001000
100001
001001
100000
001000
,
100001
001000
100000
001000
100010
001000
100000
001000
,
000100
001000
010000
100000
000001
000010
000100
001000
100000
001000
000100
000001
000010
000100
001000
010000
,
100001
000010
000100
001000
100001
010000
001000
000010
100001
000100
100001
001000
100001
010000
100001
001000
,
100001
000010
000100
010000
100001
010000
001000
000010
100001
000100
100001
001000
100001
010000
100001
001000
,
100001
000010
000100
010000
100001
010000
001000
000010
100001
000100
100001
001000
100001
010000
100001
001000
,
100001
000010
000100
010000
100001
010000
001000
000010
100001
000100
100001
001000
100001
010000
100001
001000
,
100001
000010
000100
010000
100001
010000
001000
000010
100001
000100
100001
001000
100001
010000
100001
001000
,
100001
000010
000100
010000
100001
010000
001000
000010
100001
000100
100001
001000
100001
010000
100001
001000
,
100001
000010
000100
010000
100001
010000
001000
000010
100001
000100
100001
001000
100001
010000
100001
001000
,
100001
000010
000100
010000
100100
001000
000100
000010
100100
000010
010000
000100
100001
000010
001000
010000
,
100001
000010
000100
010000
001100
010000
001000
000010
010010
000100
100001
001000
010010
000100
100001
001000
,
010010
000100
001000
000010
100001
000010
000100
001000
010010
001000
100001
000100
010010
001000
100001
000100
,
010010
001000
000100
010000
100001
010000
001000
000010
100001
000100
010010
001000
010010
000100
010010
001000
,
100001
000100
001000
000010
100001
000010
000100
010000
100001
001000
100001
000100
100001
000010
100001
000100
,
100001
010000
000100
010000
100001
010000
001000
000010
100001
000100
010010
001000
010001
000100
100010
001000
,
100001
010000
001000
000010
100001
000010
000100
010000
100001
001000
010010
000100
100001
000100
010010
000100
,
100001
000010
000100
010000
100001
010000
001000
000010
100001
000100
100001
001000
100001
010000
100001
001000
,
010100
000010
000001
000010
101000
010000
000010
000001
101000
000110
110000
000011
001100
110000
001100
000011
,
101000
000010
000001
001000
110000
000010
000001
101000
000110
000001
101000
000010
000101
001000
100000
000010
,
010001
001000
100000
000010
101000
000010
000001
100100
001010
000001
110000
000010
010001
000010
000100
000001
,
001100
100000
000100
001000
110000
000010
000001
001100
000011
001000
110000
000010
001001
000100
000010
001000
,
100100
001000
000001
000100
101000
010000
000100
100010
001100
000001
001000
000010
110000
001000
000100
000001
,
100100
001000
000001
000010
110000
000100
010000
100001
001100
000010
100001
001000
000011
001000
000100
000001
,
110000
001000
000100
000010
110000
001000
000010
100001
001100
000010
001001
000010
110000
000010
000001
001000
,
110000
000100
000001
001000
100100
001000
000010
100001
001100
000010
100001
000010
010001
001000
100000
000010
,
110000
001000
000001
000010
101000
010000
000010
100001
001100
000010
010001
001000
010010
000100
000001
001000
,
000100
001000
100000
000010
000001
001000
000001
100000
001000
000010
100000
001000
000001
000100
010000
001000
,
100000
000010
000001
001000
100000
001000
000001
100000
001000
000010
100000
000100
000010
001000
100000
001000
,
000100
000001
000100
000010
010000
001000
000010
000001
001000
000010
100000
000010
000001
000100
001000
100000
,
000100
001000
100000
001000
000100
000001
000100
100000
001000
000001
100000
001000
000100
000010
010000
000010
,
100000
000010
000001
001000
100000
001000
000010
100000
000100
010000
000100
000000
000001
000100
000001
001000
,
100000
000100
010000
000010
001000
000100
010000
000001
001000
000010
100000
000000
000010
010000
000100
000010
,
100000
000001
100000
001000
000100
000000
000010
001000
000000
001000
100000
000000
010000
000000
000010
000000
,
001000
000000
000100
000000
010000
000000
000000
000010
000000
000000
000010
000000
010002
000000
000000
000000
,
000000
000000
000000
000000
000000
000000
000000
000000
000000
000000
000000
000000
000000
000000
000000
000000
000000
000000
000000
000000
000000
000000
000000
000000
000000
000000
000000
000000
000000
000000
000000
000003
;
